<?xml version="1.0" standalone="no"?>
<!DOCTYPE svg PUBLIC "-//W3C//DTD SVG 1.1//EN" "http://www.w3.org/Graphics/SVG/1.1/DTD/svg11.dtd" >
<svg xmlns="http://www.w3.org/2000/svg" xmlns:xlink="http://www.w3.org/1999/xlink" version="1.1">
<metadata>
Created by FontForge 20161003 at Thu Jan  5 10:01:45 2017
 By www-data
Copyright (c) 2003 by Bitstream, Inc. All Rights Reserved.
Copyright (c) 2006 by Tavmjong Bah. All Rights Reserved.
DejaVu changes are in public domain
.
Modified by Magorzata Deron' for the IPA, 2016.
</metadata>
<defs>
<font id="IPASans" horiz-adv-x="1026" >
  <font-face 
    font-family="IPA Sans"
    font-weight="400"
    font-stretch="normal"
    units-per-em="2048"
    panose-1="2 11 6 3 3 8 4 2 2 4"
    ascent="1638"
    descent="-410"
    x-height="1120"
    cap-height="1493"
    bbox="-270 -547 2076 2005"
    underline-thickness="90"
    underline-position="-175"
    unicode-range="U+001D-A71C"
  />
<missing-glyph horiz-adv-x="1229" 
d="M102 -362v1806h1024v-1806h-1024zM217 -248h795v1577h-795v-1577z" />
    <glyph glyph-name="uni02E9_uni02E5.liga" unicode="&#x2e9;&#x2e5;" horiz-adv-x="829" 
d="M632 1027l-447 -1027l-124 55l571 1313h136v-1368h-136v1027z" />
    <glyph glyph-name="uni02E5_uni02E9.liga" unicode="&#x2e5;&#x2e9;" horiz-adv-x="829" 
d="M632 0l-571 1313l124 55l447 -1027v1027h136v-1368h-136z" />
    <glyph glyph-name="uni02E7_uni02E5.liga" unicode="&#x2e7;&#x2e5;" horiz-adv-x="809" 
d="M612 1156l-447 -540l-104 87l551 665h136v-1368h-136v1156z" />
    <glyph glyph-name="uni02E9_uni02E7.liga" unicode="&#x2e9;&#x2e7;" horiz-adv-x="809" 
d="M612 540l-447 -540l-104 87l551 665v616h136v-1368h-136v540z" />
    <glyph glyph-name="uni02E7_uni02E6_uni02E8.liga" unicode="&#x2e7;&#x2e6;&#x2e8;" horiz-adv-x="1225" 
d="M553 881l-419 -265l-73 115l520 329l447 -540v848h136v-1368h-136v308z" />
    <glyph glyph-name=".notdef" horiz-adv-x="1229" 
d="M102 -362v1806h1024v-1806h-1024zM217 -248h795v1577h-795v-1577z" />
    <glyph glyph-name="space" unicode=" " horiz-adv-x="651" 
 />
    <glyph glyph-name="space" horiz-adv-x="651" 
 />
    <glyph glyph-name="exclam" unicode="!" horiz-adv-x="821" 
d="M309 254h203v-254h-203v254zM309 1493h203v-655l-20 -357h-162l-21 357v655z" />
    <glyph glyph-name="quotedbl" unicode="&#x22;" horiz-adv-x="942" 
d="M367 1493v-555h-170v555h170zM745 1493v-555h-170v555h170z" />
    <glyph glyph-name="numbersign" unicode="#" horiz-adv-x="1716" 
d="M1047 901h-291l-84 -334h293zM897 1470l-104 -415h292l105 415h160l-103 -415h312v-154h-351l-82 -334h318v-153h-357l-104 -414h-160l103 414h-293l-103 -414h-161l104 414h-315v153h352l84 334h-322v154h361l102 415h162z" />
    <glyph glyph-name="dollar" unicode="$" horiz-adv-x="1303" 
d="M692 -301h-100l-1 301q-105 3 -210 24q-105 24 -211 68v180q102 -64 206 -96q105 -33 216 -34v456q-220 36 -322 122q-100 86 -100 236q0 164 109 257q109 95 313 108v235h100v-232q93 -4 180 -20q87 -15 170 -42v-175q-83 42 -170 65q-88 23 -180 27v-427
q227 -35 334 -125t107 -246q0 -169 -113 -267q-114 -96 -328 -112v-303zM592 770v410q-115 -13 -177 -66q-61 -52 -61 -141q0 -85 56 -134q57 -48 182 -69zM692 578v-433q128 17 192 72t64 145q0 89 -62 140q-60 52 -194 76z" />
    <glyph glyph-name="percent" unicode="%" horiz-adv-x="1946" 
d="M1489 657q-87 0 -137 -74q-49 -74 -49 -206q0 -130 49 -205q50 -74 137 -74q86 0 135 74q49 75 49 205q0 131 -49 205q-49 75 -135 75zM1489 784q158 0 251 -110q93 -109 93 -297q0 -187 -93 -297q-93 -109 -251 -109q-160 0 -253 109q-93 110 -93 297q0 188 93 297
q94 110 253 110zM457 1393q-85 0 -135 -75q-50 -73 -50 -204q0 -132 49 -206t136 -74t137 74q49 74 49 206q0 129 -50 204t-136 75zM1360 1520h160l-934 -1549h-160zM457 1520q158 0 252 -110q94 -108 94 -296q0 -189 -93 -298q-94 -109 -253 -109t-251 109q-93 111 -93 298
q0 186 93 296q94 110 251 110z" />
    <glyph glyph-name="ampersand" unicode="&#x26;" horiz-adv-x="1597" 
d="M498 803q-91 -81 -134 -161q-42 -80 -42 -169q0 -145 106 -243q106 -97 266 -97q95 0 178 31q83 33 156 96zM639 915l508 -520q59 89 92 191q33 101 39 215h186q-12 -132 -64 -261t-145 -255l279 -285h-252l-143 147q-104 -88 -218 -133q-114 -43 -245 -43
q-241 0 -394 137q-153 139 -153 353q0 128 67 241q68 112 201 211q-48 63 -73 125q-25 63 -25 123q0 162 111 261q111 98 295 98q83 0 165 -18q84 -18 168 -54v-182q-87 47 -166 72q-79 24 -147 24q-105 0 -171 -56q-65 -54 -65 -143q0 -51 29 -103q30 -51 121 -145z" />
    <glyph glyph-name="quotesingle" unicode="'" horiz-adv-x="563" 
d="M367 1493v-555h-170v555h170z" />
    <glyph glyph-name="parenleft" unicode="(" horiz-adv-x="799" 
d="M635 1554q-134 -230 -199 -455t-65 -456t65 -457q66 -226 199 -456h-160q-150 236 -225 462q-74 228 -74 451q0 224 74 449q74 227 225 462h160z" />
    <glyph glyph-name="parenright" unicode=")" horiz-adv-x="799" 
d="M164 1554h160q150 -235 224 -462q75 -225 75 -449q0 -223 -75 -451q-74 -226 -224 -462h-160q134 230 198 456q66 226 66 457t-66 456q-64 225 -198 455z" />
    <glyph glyph-name="asterisk" unicode="*" horiz-adv-x="1024" 
d="M963 1247l-359 -194l359 -195l-58 -98l-336 203v-377h-114v377l-336 -203l-58 98l359 195l-359 194l58 99l336 -203v377h114v-377l336 203z" />
    <glyph glyph-name="plus" unicode="+" horiz-adv-x="1716" 
d="M942 1284v-557h557v-170h-557v-557h-168v557h-557v170h557v557h168z" />
    <glyph glyph-name="comma" unicode="," horiz-adv-x="651" 
d="M240 254h211v-172l-164 -320h-129l82 320v172z" />
    <glyph glyph-name="hyphen" unicode="-" horiz-adv-x="739" 
d="M100 643h539v-164h-539v164z" />
    <glyph glyph-name="period" unicode="." horiz-adv-x="651" 
d="M219 254h211v-254h-211v254z" />
    <glyph glyph-name="slash" unicode="/" horiz-adv-x="690" 
d="M520 1493h170l-520 -1683h-170z" />
    <glyph glyph-name="zero" unicode="0" horiz-adv-x="1303" 
d="M651 1360q-156 0 -235 -154q-78 -153 -78 -461q0 -307 78 -461q79 -153 235 -153q158 0 235 153q79 154 79 461q0 308 -79 461q-77 154 -235 154zM651 1520q251 0 383 -198q133 -199 133 -577q0 -376 -133 -575q-132 -199 -383 -199q-250 0 -383 199t-133 575
q0 378 133 577q133 198 383 198z" />
    <glyph glyph-name="one" unicode="1" horiz-adv-x="1303" 
d="M254 170h330v1139l-359 -72v184l357 72h202v-1323h330v-170h-860v170z" />
    <glyph glyph-name="two" unicode="2" horiz-adv-x="1303" 
d="M393 170h705v-170h-948v170l23 23q111 116 291 297q198 200 249 258q98 109 135 184q39 76 39 149q0 119 -83 194q-84 75 -218 75q-94 0 -200 -33t-226 -100v204q122 49 228 74t194 25q233 0 370 -116q138 -116 138 -310q0 -91 -34 -174q-34 -82 -126 -195
q-25 -29 -159 -167q-133 -139 -378 -388z" />
    <glyph glyph-name="three" unicode="3" horiz-adv-x="1303" 
d="M831 805q145 -31 227 -129q81 -98 81 -242q0 -220 -152 -342q-151 -121 -432 -121q-94 0 -193 19q-100 18 -206 55v195q84 -49 184 -74t209 -25q191 0 289 75q100 76 100 218q0 132 -92 206q-93 75 -258 75h-174v166h182q149 0 228 59q79 60 79 172q0 116 -81 176
q-82 62 -234 62q-82 0 -178 -18q-95 -18 -209 -56v180q116 32 215 48q102 16 190 16q230 0 364 -104t134 -283q0 -124 -71 -209q-71 -86 -202 -119z" />
    <glyph glyph-name="four" unicode="4" horiz-adv-x="1303" 
d="M774 1317l-510 -797h510v797zM721 1493h254v-973h213v-168h-213v-352h-201v352h-674v195z" />
    <glyph glyph-name="five" unicode="5" horiz-adv-x="1303" 
d="M221 1493h793v-170h-608v-366q44 15 88 23q45 7 88 7q251 0 396 -137q146 -137 146 -371q0 -241 -150 -375q-150 -133 -423 -133q-94 0 -191 16q-99 17 -202 48v203q90 -49 186 -73q97 -24 203 -24q173 0 274 91t101 247t-101 247t-274 91q-81 0 -161 -18
q-81 -18 -165 -56v750z" />
    <glyph glyph-name="six" unicode="6" horiz-adv-x="1303" 
d="M676 827q-136 0 -216 -93q-79 -93 -79 -255q0 -160 79 -255q80 -93 216 -93q137 0 216 93q79 95 79 255q0 162 -79 255t-216 93zM1077 1460v-184q-76 36 -153 55t-154 19q-199 0 -306 -135q-105 -135 -120 -408q59 88 148 133q90 47 196 47q225 0 356 -137
q130 -135 130 -371q0 -229 -136 -369q-135 -139 -362 -139q-259 0 -396 199t-137 575q0 354 168 565q168 210 451 210q77 0 154 -15t161 -45z" />
    <glyph glyph-name="seven" unicode="7" horiz-adv-x="1303" 
d="M168 1493h960v-86l-542 -1407h-211l510 1323h-717v170z" />
    <glyph glyph-name="eight" unicode="8" horiz-adv-x="1303" 
d="M651 709q-144 0 -227 -77q-82 -77 -82 -212t82 -212q83 -77 227 -77t227 77q83 79 83 212q0 135 -83 212q-81 77 -227 77zM449 795q-130 32 -203 121q-72 90 -72 217q0 179 128 283q127 104 349 104q224 0 350 -104q127 -104 127 -283q0 -127 -72 -217q-73 -89 -202 -121
q146 -34 228 -133q81 -99 81 -242q0 -217 -133 -333q-131 -116 -379 -116q-247 0 -379 116q-133 116 -133 333q0 143 82 242q83 99 228 133zM375 1114q0 -115 73 -181q73 -65 203 -65q131 0 203 65q74 66 74 181q0 116 -74 181q-72 65 -203 65q-130 0 -203 -65t-73 -181z
" />
    <glyph glyph-name="nine" unicode="9" horiz-adv-x="1303" 
d="M225 31v184q76 -36 154 -55t153 -19q200 0 306 135q105 134 120 408q-58 -85 -147 -132q-89 -46 -197 -46q-223 0 -354 136q-131 135 -131 370q0 230 136 369t362 139q260 0 395 -198q137 -199 137 -577q0 -352 -167 -563t-451 -211q-76 0 -154 15t-162 45zM627 664
q137 0 215 93q80 93 80 255q0 161 -80 254q-78 94 -215 94q-136 0 -215 -94q-80 -93 -80 -254q0 -162 80 -255q79 -93 215 -93z" />
    <glyph glyph-name="colon" unicode=":" horiz-adv-x="690" 
d="M240 254h211v-254h-211v254zM240 1059h211v-254h-211v254z" />
    <glyph glyph-name="semicolon" unicode=";" horiz-adv-x="690" 
d="M240 1059h211v-254h-211v254zM240 254h211v-172l-164 -320h-129l82 320v172z" />
    <glyph glyph-name="less" unicode="&#x3c;" horiz-adv-x="1716" 
d="M1499 1008l-1032 -367l1032 -365v-182l-1282 465v166l1282 465v-182z" />
    <glyph glyph-name="equal" unicode="=" horiz-adv-x="1716" 
d="M217 930h1282v-168h-1282v168zM217 522h1282v-170h-1282v170z" />
    <glyph glyph-name="greater" unicode="&#x3e;" horiz-adv-x="1716" 
d="M217 1008v182l1282 -465v-166l-1282 -465v182l1030 365z" />
    <glyph glyph-name="question" unicode="?" horiz-adv-x="1087" 
d="M391 254h203v-254h-203v254zM588 401h-191v154q0 101 28 166t118 151l90 89q57 53 83 100q25 47 25 96q0 89 -65 144q-66 55 -174 55q-79 0 -168 -35q-90 -34 -187 -102v188q94 57 191 85q96 28 199 28q185 0 295 -97q112 -97 112 -256q0 -76 -36 -145q-36 -68 -126 -154
l-88 -86q-46 -47 -66 -74q-21 -25 -28 -51q-6 -21 -9 -51q-3 -29 -3 -82v-123z" />
    <glyph glyph-name="at" unicode="@" horiz-adv-x="2048" 
d="M762 537q0 -142 71 -225q71 -81 195 -81q123 0 194 82q70 82 70 224q0 140 -72 223q-72 82 -194 82q-121 0 -192 -82q-72 -82 -72 -223zM1307 238q-60 -76 -137 -114q-77 -36 -181 -36q-172 0 -279 124q-108 126 -108 325q0 200 108 325t279 125q104 0 181 -37
q78 -37 137 -114v131h143v-736q146 22 228 133q83 112 83 289q0 107 -31 201q-31 95 -96 174q-104 131 -254 200q-149 70 -325 70q-123 0 -236 -32q-113 -33 -209 -97q-157 -102 -246 -267q-88 -165 -88 -359q0 -159 58 -298q57 -139 166 -245q105 -104 243 -158
q138 -55 295 -55q129 0 254 43q125 45 228 125l90 -111q-125 -97 -272 -148q-148 -52 -300 -52q-184 0 -349 66q-164 65 -292 190q-127 125 -195 290q-67 164 -67 353q0 182 68 347t194 290q129 128 298 194q169 68 358 68q212 0 393 -87q183 -87 305 -247q75 -97 115 -213
q39 -115 39 -238q0 -262 -159 -415q-159 -152 -439 -158v154z" />
    <glyph glyph-name="A" unicode="A" horiz-adv-x="1401" 
d="M700 1294l-274 -743h549zM586 1493h229l569 -1493h-210l-136 383h-673l-136 -383h-213z" />
    <glyph glyph-name="B" unicode="B" horiz-adv-x="1405" 
d="M403 713v-547h324q164 0 241 68q79 67 79 206q0 140 -79 206q-77 67 -241 67h-324zM403 1327v-450h299q149 0 220 55q73 56 73 170q0 113 -73 169q-71 56 -220 56h-299zM201 1493h516q231 0 356 -96t125 -273q0 -136 -64 -218q-64 -81 -188 -101q148 -32 232 -133
q82 -102 82 -254q0 -199 -136 -309q-136 -109 -387 -109h-536v1493z" />
    <glyph glyph-name="C" unicode="C" horiz-adv-x="1430" 
d="M1319 1378v-213q-102 95 -217 142t-246 47q-256 0 -392 -156q-136 -157 -136 -453q0 -295 136 -451q136 -157 392 -157q131 0 246 47t217 142v-211q-106 -72 -225 -108q-118 -36 -250 -36q-339 0 -534 207q-195 209 -195 567q0 360 195 567q195 208 534 208
q134 0 252 -36q120 -35 223 -106z" />
    <glyph glyph-name="D" unicode="D" horiz-adv-x="1577" 
d="M403 1327v-1161h244q309 0 453 140q143 141 143 442q0 300 -143 440q-144 139 -453 139h-244zM201 1493h415q434 0 637 -181q203 -180 203 -564q0 -385 -204 -567q-204 -181 -636 -181h-415v1493z" />
    <glyph glyph-name="E" unicode="E" horiz-adv-x="1294" 
d="M201 1493h944v-170h-742v-442h711v-170h-711v-541h760v-170h-962v1493z" />
    <glyph glyph-name="F" unicode="F" horiz-adv-x="1178" 
d="M201 1493h858v-170h-656v-440h592v-170h-592v-713h-202v1493z" />
    <glyph glyph-name="G" unicode="G" horiz-adv-x="1587" 
d="M1219 213v401h-330v166h530v-641q-117 -83 -258 -125q-140 -43 -301 -43q-349 0 -548 205q-197 205 -197 569q0 366 197 571q199 204 548 204q146 0 278 -36q131 -36 242 -106v-215q-112 95 -238 143q-125 48 -265 48q-274 0 -411 -153q-138 -153 -138 -456
q0 -301 138 -455q137 -153 411 -153q107 0 191 19q84 18 151 57z" />
    <glyph glyph-name="H" unicode="H" horiz-adv-x="1540" 
d="M201 1493h202v-612h734v612h202v-1493h-202v711h-734v-711h-202v1493z" />
    <glyph glyph-name="I" unicode="I" horiz-adv-x="604" 
d="M201 1493h202v-1493h-202v1493z" />
    <glyph glyph-name="J" unicode="J" horiz-adv-x="604" 
d="M201 1493h202v-1389q0 -270 -103 -392q-102 -122 -329 -122h-77v170h63q134 0 189 75q55 76 55 269v1389z" />
    <glyph glyph-name="K" unicode="K" horiz-adv-x="1343" 
d="M201 1493h202v-631l670 631h260l-741 -696l794 -797h-266l-717 719v-719h-202v1493z" />
    <glyph glyph-name="L" unicode="L" horiz-adv-x="1141" 
d="M201 1493h202v-1323h727v-170h-929v1493z" />
    <glyph glyph-name="M" unicode="M" horiz-adv-x="1767" 
d="M201 1493h301l381 -1016l383 1016h301v-1493h-197v1311l-385 -1024h-203l-385 1024v-1311h-196v1493z" />
    <glyph glyph-name="N" unicode="N" horiz-adv-x="1532" 
d="M201 1493h272l662 -1249v1249h196v-1493h-272l-662 1249v-1249h-196v1493z" />
    <glyph glyph-name="O" unicode="O" horiz-adv-x="1612" 
d="M807 1356q-220 0 -349 -164q-130 -163 -130 -447q0 -282 130 -446q129 -164 349 -164q221 0 349 164t128 446q0 284 -128 447q-128 164 -349 164zM807 1520q314 0 502 -210q188 -211 188 -565q0 -352 -188 -563t-502 -211q-315 0 -503 210q-189 210 -189 564t189 565
q188 210 503 210z" />
    <glyph glyph-name="P" unicode="P" horiz-adv-x="1235" 
d="M403 1327v-561h254q141 0 218 73t77 208q0 134 -77 207t-218 73h-254zM201 1493h456q251 0 379 -113q129 -114 129 -333q0 -220 -129 -334q-128 -113 -379 -113h-254v-600h-202v1493z" />
    <glyph glyph-name="Q" unicode="Q" horiz-adv-x="1612" 
d="M807 1356q-220 0 -349 -164q-130 -163 -130 -447q0 -282 130 -446q129 -164 349 -164q221 0 349 164t128 446q0 284 -128 447q-128 164 -349 164zM1090 27l266 -291h-244l-221 239q-33 -1 -51 -3q-16 -1 -33 -1q-315 0 -503 211q-189 211 -189 563q0 354 189 565
q188 210 503 210q314 0 502 -210q188 -211 188 -565q0 -259 -105 -445q-104 -184 -302 -273z" />
    <glyph glyph-name="R" unicode="R" horiz-adv-x="1423" 
d="M909 700q64 -22 127 -94q62 -72 123 -198l205 -408h-217l-191 383q-73 150 -144 199q-69 49 -189 49h-220v-631h-202v1493h456q257 0 382 -107q126 -107 126 -323q0 -141 -65 -234q-66 -93 -191 -129zM403 1327v-530h254q146 0 221 67q74 69 74 199q0 131 -74 197
q-75 67 -221 67h-254z" />
    <glyph glyph-name="S" unicode="S" horiz-adv-x="1300" 
d="M1096 1444v-197q-115 55 -217 82t-197 27q-165 0 -254 -64q-90 -63 -90 -182q0 -99 60 -150q59 -49 225 -81l122 -25q227 -43 333 -152q108 -108 108 -290q0 -217 -146 -329q-145 -112 -426 -112q-106 0 -226 24q-119 24 -247 71v208q123 -69 241 -104t232 -35
q173 0 267 68t94 194q0 110 -67 172t-222 93l-123 24q-226 45 -327 141t-101 267q0 198 139 312q141 114 385 114q105 0 214 -19t223 -57z" />
    <glyph glyph-name="T" unicode="T" horiz-adv-x="1251" 
d="M-6 1493h1263v-170h-530v-1323h-203v1323h-530v170z" />
    <glyph glyph-name="U" unicode="U" horiz-adv-x="1499" 
d="M178 1493h203v-907q0 -240 87 -346q87 -105 282 -105q194 0 281 105q87 106 87 346v907h203v-932q0 -292 -145 -441q-144 -149 -426 -149q-283 0 -428 149q-144 149 -144 441v932z" />
    <glyph glyph-name="V" unicode="V" horiz-adv-x="1401" 
d="M586 0l-570 1493h211l473 -1257l474 1257h210l-569 -1493h-229z" />
    <glyph glyph-name="W" unicode="W" horiz-adv-x="2025" 
d="M68 1493h204l314 -1262l313 1262h227l314 -1262l313 1262h205l-375 -1493h-254l-315 1296l-318 -1296h-254z" />
    <glyph glyph-name="X" unicode="X" horiz-adv-x="1403" 
d="M129 1493h217l371 -555l373 555h217l-480 -717l512 -776h-217l-420 635l-423 -635h-218l533 797z" />
    <glyph glyph-name="Y" unicode="Y" horiz-adv-x="1251" 
d="M-4 1493h217l414 -614l411 614h217l-528 -782v-711h-203v711z" />
    <glyph glyph-name="Z" unicode="Z" horiz-adv-x="1403" 
d="M115 1493h1173v-154l-944 -1169h967v-170h-1219v154l944 1169h-921v170z" />
    <glyph glyph-name="bracketleft" unicode="[" horiz-adv-x="799" 
d="M176 1556h424v-143h-240v-1540h240v-143h-424v1826z" />
    <glyph glyph-name="backslash" unicode="\" horiz-adv-x="690" 
d="M170 1493l520 -1683h-170l-520 1683h170z" />
    <glyph glyph-name="bracketright" unicode="]" horiz-adv-x="799" 
d="M623 1556v-1826h-424v143h239v1540h-239v143h424z" />
    <glyph glyph-name="asciicircum" unicode="^" horiz-adv-x="1716" 
d="M956 1493l543 -557h-201l-440 395l-440 -395h-201l543 557h196z" />
    <glyph glyph-name="underscore" unicode="_" horiz-adv-x="1024" 
d="M1044 -340v-143h-1064v143h1064z" />
    <glyph glyph-name="grave" unicode="`" horiz-adv-x="1024" 
d="M367 1638l282 -374h-153l-326 374h197z" />
    <glyph glyph-name="a" unicode="a" horiz-adv-x="1255" 
d="M702 563q-223 0 -309 -51t-86 -174q0 -97 65 -156q64 -57 175 -57q153 0 245 109q93 108 93 288v41h-183zM1069 639v-639h-184v170q-63 -102 -157 -150q-93 -49 -230 -49q-172 0 -274 97q-101 96 -101 258q0 189 127 285t377 96h258v18q0 128 -83 197t-235 69
q-96 0 -187 -23q-91 -22 -175 -69v170q101 39 196 59q95 19 185 19q243 0 363 -126q120 -125 120 -382z" />
    <glyph glyph-name="b" unicode="b" horiz-adv-x="1300" 
d="M997 559q0 203 -83 319q-84 115 -230 115q-145 0 -230 -115q-83 -116 -83 -319q0 -202 83 -319q85 -115 230 -115q146 0 230 115q83 117 83 319zM371 950q59 100 147 148q88 49 211 49q204 0 331 -162q128 -162 128 -426t-128 -426q-127 -162 -331 -162q-123 0 -211 49
q-88 48 -147 148v-168h-185v1556h185v-606z" />
    <glyph glyph-name="c" unicode="c" horiz-adv-x="1126" 
d="M999 1077v-172q-78 43 -157 65q-78 21 -158 21q-178 0 -278 -113q-99 -113 -99 -319q0 -205 99 -319q100 -113 278 -113q80 0 158 21q79 22 157 65v-170q-76 -36 -159 -54t-176 -18q-253 0 -402 159t-149 429q0 275 151 431q150 157 412 157q86 0 166 -17q81 -18 157 -53
z" />
    <glyph glyph-name="d" unicode="d" horiz-adv-x="1300" 
d="M930 950v606h184v-1556h-184v168q-59 -100 -146 -148q-88 -49 -213 -49q-202 0 -331 162q-127 162 -127 426t127 426q129 162 331 162q125 0 213 -49q88 -48 146 -148zM303 559q0 -202 83 -319q85 -115 230 -115q146 0 230 115q84 117 84 319q0 203 -84 319
q-84 115 -230 115q-145 0 -230 -115q-83 -116 -83 -319z" />
    <glyph glyph-name="e" unicode="e" horiz-adv-x="1260" 
d="M1151 606v-90h-846q12 -190 115 -290q102 -99 285 -99q107 0 205 26q101 26 198 78v-174q-99 -42 -203 -64t-211 -22q-268 0 -424 156q-157 157 -157 422q0 275 149 437q148 161 400 161q227 0 358 -145t131 -396zM967 660q-2 151 -85 241q-81 90 -218 90
q-154 0 -246 -87q-93 -87 -107 -245z" />
    <glyph glyph-name="f" unicode="f" horiz-adv-x="721" 
d="M760 1556v-153h-176q-99 0 -138 -40q-38 -40 -38 -144v-99h303v-143h-303v-977h-185v977h-176v143h176v78q0 188 87 272q87 86 276 86h174z" />
    <glyph glyph-name="g" unicode="g" horiz-adv-x="1300" 
d="M930 573q0 200 -82 310q-83 110 -232 110q-148 0 -230 -110q-83 -110 -83 -310q0 -199 83 -309q82 -110 230 -110q149 0 232 110q82 110 82 309zM1114 139q0 -286 -127 -425q-126 -140 -389 -140q-97 0 -183 14q-86 15 -167 45v179q81 -44 160 -65t161 -21q182 0 271 94
q90 96 90 286v91q-57 -99 -146 -148q-88 -49 -213 -49q-205 0 -332 157q-126 157 -126 416q0 260 126 417q127 157 332 157q125 0 213 -49q89 -49 146 -148v170h184v-981z" />
    <glyph glyph-name="h" unicode="h" horiz-adv-x="1298" 
d="M1124 676v-676h-184v670q0 159 -62 238q-61 79 -186 79q-148 0 -235 -95q-86 -95 -86 -259v-633h-185v1556h185v-610q66 101 155 151q90 50 207 50q194 0 292 -119q99 -119 99 -352z" />
    <glyph glyph-name="i" unicode="i" horiz-adv-x="569" 
d="M193 1120h184v-1120h-184v1120zM193 1556h184v-233h-184v233z" />
    <glyph glyph-name="j" unicode="j" horiz-adv-x="569" 
d="M193 1120h184v-1140q0 -214 -81 -310t-263 -96h-70v156h49q105 0 143 48q38 49 38 202v1140zM193 1556h184v-233h-184v233z" />
    <glyph glyph-name="k" unicode="k" horiz-adv-x="1186" 
d="M186 1556h185v-919l549 483h235l-594 -524l619 -596h-240l-569 547v-547h-185v1556z" />
    <glyph glyph-name="l" unicode="l" horiz-adv-x="569" 
d="M193 1556h184v-1556h-184v1556z" />
    <glyph glyph-name="m" unicode="m" horiz-adv-x="1995" 
d="M1065 905q69 125 165 183q96 59 226 59q176 0 270 -123q95 -121 95 -348v-676h-185v670q0 161 -57 239t-174 78q-142 0 -226 -95q-83 -95 -83 -259v-633h-185v670q0 162 -57 240q-57 77 -176 77q-141 0 -224 -95t-83 -259v-633h-185v1120h185v-174q63 103 151 152t209 49
q122 0 207 -62q87 -61 127 -180z" />
    <glyph glyph-name="n" unicode="n" horiz-adv-x="1298" 
d="M1124 676v-676h-184v670q0 159 -62 238q-61 79 -186 79q-148 0 -235 -95q-86 -95 -86 -259v-633h-185v1120h185v-174q66 101 155 151q90 50 207 50q194 0 292 -119q99 -119 99 -352z" />
    <glyph glyph-name="o" unicode="o" horiz-adv-x="1253" 
d="M627 991q-148 0 -234 -115q-86 -116 -86 -317t85 -317q87 -115 235 -115q147 0 233 116q86 117 86 316q0 200 -86 315q-86 117 -233 117zM627 1147q240 0 377 -156t137 -432q0 -274 -137 -431t-377 -157q-241 0 -377 157q-137 157 -137 431q0 276 137 432
q136 156 377 156z" />
    <glyph glyph-name="p" unicode="p" horiz-adv-x="1300" 
d="M371 168v-594h-185v1546h185v-170q59 100 147 148q88 49 211 49q204 0 331 -162q128 -162 128 -426t-128 -426q-127 -162 -331 -162q-123 0 -211 49q-88 48 -147 148zM997 559q0 203 -83 319q-84 115 -230 115q-145 0 -230 -115q-83 -116 -83 -319q0 -202 83 -319
q85 -115 230 -115q146 0 230 115q83 117 83 319z" />
    <glyph glyph-name="q" unicode="q" horiz-adv-x="1300" 
d="M303 559q0 -202 83 -319q85 -115 230 -115q146 0 230 115q84 117 84 319q0 203 -84 319q-84 115 -230 115q-145 0 -230 -115q-83 -116 -83 -319zM930 168q-59 -100 -146 -148q-88 -49 -213 -49q-202 0 -331 162q-127 162 -127 426t127 426q129 162 331 162q125 0 213 -49
q88 -48 146 -148v170h184v-1546h-184v594z" />
    <glyph glyph-name="r" unicode="r" horiz-adv-x="842" 
d="M842 948q-31 18 -68 26q-36 9 -80 9q-156 0 -240 -101q-83 -101 -83 -292v-590h-185v1120h185v-174q58 102 151 152q93 49 226 49q20 0 42 -3q20 -1 42 -6h5q2 -1 4 -1z" />
    <glyph glyph-name="s" unicode="s" horiz-adv-x="1067" 
d="M907 1087v-174q-78 41 -162 60q-84 20 -174 20q-136 0 -205 -42t-69 -126q0 -64 49 -101q49 -36 197 -69l63 -14q197 -41 278 -119q83 -76 83 -213q0 -156 -123 -247q-124 -91 -340 -91q-90 0 -188 17q-96 18 -205 53v190q102 -53 201 -79q99 -27 196 -27q131 0 200 45
q70 44 70 125q0 75 -50 115q-51 40 -222 77l-64 15q-171 36 -247 110q-76 75 -76 205q0 158 112 244q113 86 318 86q102 0 192 -15t166 -45z" />
    <glyph glyph-name="t" unicode="t" horiz-adv-x="803" 
d="M375 1438v-318h379v-143h-379v-608q0 -136 37 -176q38 -39 153 -39h189v-154h-189q-213 0 -294 80q-81 79 -81 289v608h-135v143h135v318h185z" />
    <glyph glyph-name="u" unicode="u" horiz-adv-x="1298" 
d="M174 442v678h184v-671q0 -159 62 -239q62 -79 186 -79q149 0 236 95q86 96 86 259v635h184v-1120h-184v172q-66 -101 -156 -152q-88 -49 -205 -49q-193 0 -293 120t-100 351z" />
    <glyph glyph-name="v" unicode="v" horiz-adv-x="1212" 
d="M61 1120h195l350 -940l350 940h195l-420 -1120h-250z" />
    <glyph glyph-name="w" unicode="w" horiz-adv-x="1675" 
d="M86 1120h184l230 -874l229 874h217l230 -874l229 874h184l-293 -1120h-217l-241 918l-242 -918h-217z" />
    <glyph glyph-name="x" unicode="x" horiz-adv-x="1212" 
d="M1124 1120l-405 -545l426 -575h-217l-326 440l-326 -440h-217l435 586l-398 534h217l297 -399l297 399h217z" />
    <glyph glyph-name="y" unicode="y" horiz-adv-x="1212" 
d="M659 -104q-78 -199 -152 -261q-73 -61 -198 -61h-147v154h108q77 0 118 36q42 36 93 170l33 84l-453 1102h195l350 -876l350 876h195z" />
    <glyph glyph-name="z" unicode="z" horiz-adv-x="1075" 
d="M113 1120h874v-168l-692 -805h692v-147h-899v168l692 805h-667v147z" />
    <glyph glyph-name="braceleft" unicode="{" horiz-adv-x="1303" 
d="M1047 -190v-144h-62q-249 0 -333 74q-85 75 -85 295v239q0 152 -54 209q-53 58 -196 58h-61v143h61q143 0 197 58q53 58 53 206v240q0 221 85 294q84 74 333 74h62v-143h-68q-141 0 -184 -44t-43 -185v-248q0 -157 -46 -228q-45 -70 -155 -96q111 -27 156 -98t45 -227
v-248q0 -141 43 -185t184 -44h68z" />
    <glyph glyph-name="bar" unicode="|" horiz-adv-x="690" 
d="M430 1565v-2048h-170v2048h170z" />
    <glyph glyph-name="braceright" unicode="}" horiz-adv-x="1303" 
d="M256 -190h70q140 0 182 43q43 44 43 186v248q0 156 45 227t156 98q-111 26 -156 96q-45 71 -45 228v248q0 143 -43 186q-42 43 -182 43h-70v143h63q249 0 333 -74q83 -73 83 -294v-240q0 -148 54 -206t196 -58h62v-143h-62q-142 0 -196 -58q-54 -57 -54 -209v-239
q0 -220 -83 -295q-84 -74 -333 -74h-63v144z" />
    <glyph glyph-name="asciitilde" unicode="~" horiz-adv-x="1716" 
d="M1499 817v-178q-105 -79 -195 -113q-88 -34 -186 -34q-109 0 -256 59q-11 5 -16 6h-0.5t-0.5 1h-1q-7 3 -20 7q-154 62 -249 62q-88 0 -174 -39q-86 -38 -184 -121v178q105 80 195 113q89 35 186 35q110 0 257 -60l15 -6q8 -3 22 -8q155 -62 249 -62q86 0 171 38
q84 38 187 122z" />
    <glyph glyph-name="uni00A0" unicode="&#xa0;" horiz-adv-x="651" 
 />
    <glyph glyph-name="exclamdown" unicode="&#xa1;" horiz-adv-x="821" 
d="M512 866h-203v254h203v-254zM512 -373h-203v655l21 357h162l20 -357v-655z" />
    <glyph glyph-name="ae" unicode="&#xe6;" horiz-adv-x="2011" 
d="M1718 660q-1 151 -84 241q-82 90 -219 90q-153 0 -245 -87q-93 -87 -107 -245zM995 963q74 90 180 137t238 47q227 0 358 -145q132 -145 132 -396v-90h-846q12 -190 114 -291q102 -100 285 -100q104 0 204 27q100 26 200 79v-174q-100 -42 -204 -64q-103 -22 -210 -22
q-166 0 -291 61q-124 60 -201 179q-73 -120 -181 -180t-251 -60q-189 0 -294 93q-105 94 -105 262q0 189 127 285t377 96h258v18q0 128 -83 197t-235 69q-96 0 -187 -23q-91 -22 -175 -69v170q101 39 196 59q95 19 185 19q143 0 248 -48q108 -48 161 -136zM702 563
q-223 0 -309 -51t-86 -174q0 -97 65 -156q64 -57 175 -57q153 0 245 109q93 108 93 288v41h-183z" />
    <glyph glyph-name="ccedilla" unicode="&#xe7;" horiz-adv-x="1126" 
d="M999 1077v-172q-78 43 -157 65q-78 21 -158 21q-178 0 -278 -113q-99 -113 -99 -319q0 -205 99 -319q100 -113 278 -113q80 0 158 21q79 22 157 65v-170q-76 -36 -159 -54t-176 -18q-253 0 -402 159t-149 429q0 275 151 431q150 157 412 157q86 0 166 -17q81 -18 157 -53
zM739 0q55 -61 82 -114t27 -101q0 -88 -60 -135q-59 -45 -178 -45q-46 0 -90 6q-43 6 -86 18v131q34 -16 71 -24q38 -8 84 -8q59 0 89 24t30 70q0 30 -22 74q-21 42 -66 104h119z" />
    <glyph glyph-name="eth" unicode="&#xf0;" horiz-adv-x="1253" 
d="M838 915q-50 17 -94 25t-85 8q-166 0 -259 -108t-93 -303q0 -187 87 -299q88 -111 233 -111q146 0 232 111q87 112 87 299q0 122 -27 216q-27 95 -81 162zM901 1141q126 -143 183 -287t57 -317q0 -255 -142 -411q-142 -155 -372 -155q-231 0 -373 155q-141 156 -141 411
q0 251 138 405q139 156 359 156q13 0 32 -2h12l17 -2q21 -3 51 -6l-159 180l-319 -107l-33 99l281 92l-181 204h228l127 -145l333 111l33 -97l-295 -98z" />
    <glyph glyph-name="oslash" unicode="&#xf8;" horiz-adv-x="1253" 
d="M905 801l-487 -592q41 -42 92 -62q53 -20 117 -20q147 0 233 116q86 117 86 316q0 80 -10 137q-10 60 -31 105zM834 909q-42 41 -94 61q-51 21 -113 21q-151 0 -235 -117q-85 -117 -85 -329q0 -72 9 -127q11 -55 30 -101zM221 166q-54 77 -81 176t-27 217q0 276 137 432
q136 156 377 156q93 0 173 -25q79 -25 146 -78l139 168l95 -79l-146 -179q53 -77 80 -176t27 -219q0 -274 -137 -431t-377 -157q-96 0 -177 26q-80 26 -143 77l-139 -168l-96 78z" />
    <glyph glyph-name="hbar" unicode="&#x127;" horiz-adv-x="1423" 
d="M1183 676v-676h-184v670q0 159 -62 238q-61 79 -186 79q-148 0 -235 -95q-86 -95 -86 -259v-633h-185v1270h-125v164h125v122h185v-122h352v-164h-352v-324q66 101 156 151q89 50 206 50q194 0 292 -119q99 -119 99 -352z" />
    <glyph glyph-name="eng" unicode="&#x14b;" horiz-adv-x="1298" 
d="M1124 676v-696q0 -214 -82 -310q-80 -96 -262 -96h-254v156h233q105 0 143 48q38 49 38 202v690q0 159 -62 238q-61 79 -186 79q-148 0 -235 -95q-86 -95 -86 -259v-633h-185v1120h185v-174q66 101 155 151q90 50 207 50q194 0 292 -119q99 -119 99 -352z" />
    <glyph glyph-name="oe" unicode="&#x153;" horiz-adv-x="2095" 
d="M1802 660q-1 152 -84 242q-82 89 -219 89q-153 0 -245 -87q-93 -87 -107 -245zM1987 606v-90h-846q12 -190 114 -290q102 -99 285 -99q107 0 206 26q101 26 198 78v-174q-100 -42 -204 -64q-103 -22 -210 -22q-160 0 -281 55t-202 164q-71 -110 -175 -164
q-105 -55 -245 -55q-241 0 -377 157q-137 157 -137 431q0 276 137 432q136 156 377 156q140 0 245 -55q106 -56 172 -164q78 107 194 163q117 56 259 56q227 0 358 -145q132 -145 132 -396zM627 991q-148 0 -234 -115q-86 -116 -86 -317t85 -317q87 -115 235 -115
q147 0 233 116q86 117 86 316q0 200 -86 315q-86 117 -233 117z" />
    <glyph glyph-name="uni01C0" unicode="&#x1c0;" horiz-adv-x="604" 
d="M201 1493h202v-1919h-202v1919z" />
    <glyph glyph-name="uni01C1" unicode="&#x1c1;" horiz-adv-x="1008" 
d="M605 1493h202v-1919h-202v1919zM201 1493h202v-1919h-202v1919z" />
    <glyph glyph-name="uni01C2" unicode="&#x1c2;" horiz-adv-x="940" 
d="M371 1493h202v-617h351v-168h-351v-240h351v-170h-351v-724h-202v724h-351v170h351v240h-351v168h351v617z" />
    <glyph glyph-name="uni01C3" unicode="&#x1c3;" horiz-adv-x="605" 
d="M201 254h203v-254h-203v254zM201 1493h203v-655l-20 -357h-162l-21 357v655z" />
    <glyph glyph-name="uni0250" unicode="&#x250;" horiz-adv-x="1229" 
d="M541 555q224 0 309 51q86 51 86 174q0 98 -64 156q-65 57 -176 57q-153 0 -246 -109q-92 -108 -92 -288v-41h183zM174 479v639h184v-170q63 102 157 150q94 49 230 49q173 0 273 -97q102 -96 102 -258q0 -189 -126 -285q-127 -96 -378 -96h-258v-18q0 -127 84 -197
q83 -69 234 -69q96 0 187 23t175 69v-170q-101 -38 -196 -59q-95 -19 -185 -19q-243 0 -363 126t-120 382z" />
    <glyph glyph-name="uni0251" unicode="&#x251;" horiz-adv-x="1300" 
d="M930 950v170h184v-1120h-184v168q-59 -100 -146 -148q-88 -49 -213 -49q-202 0 -331 162q-127 162 -127 426t127 426q129 162 331 162q125 0 213 -49q88 -48 146 -148zM303 559q0 -202 83 -319q85 -115 230 -115q146 0 230 115q84 117 84 319q0 203 -84 319
q-84 115 -230 115q-145 0 -230 -115q-83 -116 -83 -319z" />
    <glyph glyph-name="uni0252" unicode="&#x252;" horiz-adv-x="1300" 
d="M997 559q0 203 -83 319q-84 115 -230 115q-145 0 -230 -115q-84 -116 -84 -319q0 -202 84 -319q85 -115 230 -115q146 0 230 115q83 117 83 319zM370 950q59 100 146 148q89 49 213 49q203 0 331 -162q127 -162 127 -426t-127 -426q-128 -162 -331 -162q-124 0 -213 49
q-88 48 -146 148v-170h-184v1120h184v-168z" />
    <glyph glyph-name="uni0253" unicode="&#x253;" horiz-adv-x="1300" 
d="M997 559q0 203 -83 319q-84 115 -230 115q-145 0 -230 -115q-83 -116 -83 -319q0 -202 83 -319q85 -115 230 -115q146 0 230 115q83 117 83 319zM371 950q59 100 147 148q88 49 211 49q204 0 331 -162q128 -162 128 -426t-128 -426q-127 -162 -331 -162q-123 0 -211 49
q-88 48 -147 148v-168h-185v1150q0 195 90 300q89 106 254 106h254v-156h-233q-90 0 -135 -62q-46 -63 -46 -188z" />
    <glyph glyph-name="uni0254" unicode="&#x254;" horiz-adv-x="1125" 
d="M127 1075q78 36 159 54q83 18 176 18q254 0 402 -159q149 -159 149 -429q0 -274 -151 -431q-149 -157 -412 -157q-85 0 -166 17q-81 18 -157 53v172q78 -43 157 -65q79 -21 158 -21q179 0 278 113q99 114 99 319q0 206 -99 319t-278 113q-79 0 -158 -21q-79 -22 -157 -65
v170z" />
    <glyph glyph-name="uni0255" unicode="&#x255;" horiz-adv-x="1126" 
d="M999 1077v-172q-78 43 -157 65q-78 21 -158 21q-178 0 -278 -113q-99 -113 -99 -319q0 -205 99 -319l4 -4t3 -4l6 -6q39 81 101 125q73 51 179 51q164 0 237 -72q63 -61 63 -150q0 -124 -95 -172q-83 -41 -238 -41q-79 0 -153 17q-6 -57 -6 -125h-153q0 104 12 185
q-57 35 -104 86q-149 161 -149 429q0 275 151 431q150 157 412 157q86 0 166 -17q81 -18 157 -53zM549 146q59 -19 135 -19q146 0 146 57q0 75 -132 75q-100 0 -149 -113z" />
    <glyph glyph-name="uni0256" unicode="&#x256;" horiz-adv-x="1300" 
d="M1344 -426h-70q-181 0 -262 96q-82 96 -82 310v188q-59 -100 -146 -148q-88 -49 -213 -49q-202 0 -331 162q-127 162 -127 426t127 426q129 162 331 162q125 0 213 -49q88 -48 146 -148v606h184v-1576q0 -153 38 -202q38 -48 143 -48h49v-156zM303 559q0 -202 83 -319
q85 -115 230 -115q146 0 230 115q84 117 84 319q0 203 -84 319q-84 115 -230 115q-145 0 -230 -115q-83 -116 -83 -319z" />
    <glyph glyph-name="uni0257" unicode="&#x257;" horiz-adv-x="1426" 
d="M930 950v200q0 215 82 310q81 96 262 96h191v-156h-170q-105 0 -143 -48q-38 -49 -38 -202v-1150h-184v168q-59 -100 -146 -148q-88 -49 -213 -49q-202 0 -331 162q-127 162 -127 426t127 426q129 162 331 162q125 0 213 -49q88 -48 146 -148zM303 559q0 -202 83 -319
q85 -115 230 -115q146 0 230 115q84 117 84 319q0 203 -84 319q-84 115 -230 115q-145 0 -230 -115q-83 -116 -83 -319z" />
    <glyph glyph-name="uni0258" unicode="&#x258;" horiz-adv-x="1260" 
d="M113 606q0 251 131 396q132 145 358 145q252 0 400 -161q149 -162 149 -437q0 -265 -157 -422q-155 -156 -424 -156q-106 0 -211 22q-104 22 -203 64v174q98 -52 198 -78q99 -26 205 -26q183 0 285 99q103 100 115 290h-846v90zM297 660l656 -1q-14 158 -107 245
q-91 87 -246 87q-136 0 -218 -90q-83 -90 -85 -241z" />
    <glyph glyph-name="uni0259" unicode="&#x259;" horiz-adv-x="1260" 
d="M113 512v90h846q-12 190 -115 290q-102 99 -285 99q-106 0 -205 -26q-100 -25 -198 -78v174q99 42 203 64q105 22 211 22q269 0 424 -156q157 -156 157 -422q0 -274 -149 -437q-148 -161 -400 -161q-226 0 -358 145q-131 146 -131 396zM297 458q2 -151 85 -241
q82 -90 218 -90q155 0 246 87q93 87 107 245z" />
    <glyph glyph-name="uni025A" unicode="&#x25a;" horiz-adv-x="1678" 
d="M846 214q102 138 100 345q2 62 -9 118l-617 -356q30 -69 62 -104q82 -90 218 -90q168 0 246 87zM1120 783q31 -95 31 -214q0 -274 -149 -437q-148 -161 -400 -161q-228 0 -358 145q-91 103 -120 259l766 443q-19 39 -46 74q-76 101 -285 99q-108 -1 -205 -26
q-100 -25 -198 -78v174q99 42 203 64q105 22 211 22q269 0 424 -156q36 -35 63 -76l203 117h184v-148q0 -153 38 -202q38 -48 143 -48h43v-156h-64q-175 0 -262 96q-82 91 -82 290z" />
    <glyph glyph-name="uni025B" unicode="&#x25b;" horiz-adv-x="1107" 
d="M395 604q-112 24 -172 89q-60 64 -60 157q0 141 114 220q113 78 309 78q77 0 161 -12q86 -12 183 -36v-167q-97 29 -177 42q-81 13 -152 13q-118 0 -188 -46q-70 -45 -70 -110q0 -70 68 -115q68 -44 183 -44h155v-152h-148q-136 0 -209 -51q-78 -55 -78 -144
q0 -90 84 -146q85 -56 236 -56q93 0 178 18q86 19 156 56v-171q-90 -28 -174 -42q-85 -14 -165 -14q-238 0 -367 91q-129 92 -129 264q0 108 69 181t193 97z" />
    <glyph glyph-name="uni025C" unicode="&#x25c;" horiz-adv-x="1089" 
d="M706 604q124 -24 193 -97t69 -181q0 -172 -129 -264q-128 -91 -367 -91q-79 0 -164 14t-175 42v171q71 -37 156 -56q85 -18 178 -18q152 0 235 56q85 56 85 146q0 89 -75 142t-212 53h-148v152h155q116 0 183 45q68 44 68 114q0 65 -70 110q-69 46 -188 46
q-70 0 -152 -13q-79 -13 -177 -42v167q98 24 183 36t161 12q197 0 309 -78q114 -79 114 -220q0 -93 -60 -158q-60 -63 -172 -88z" />
    <glyph glyph-name="uni025D" unicode="&#x25d;" horiz-adv-x="1588" 
d="M706 604q124 -24 193 -97t69 -181q0 -172 -129 -264q-128 -91 -367 -91q-79 0 -165 14q-84 14 -174 42v171q71 -37 156 -56q85 -18 178 -18q152 0 236 56t84 146q0 89 -78 144q-72 51 -209 51h-148v152h155q116 0 183 44q68 45 68 115q0 65 -70 110q-69 46 -188 46
q-70 0 -152 -13q-79 -13 -177 -42v167q98 24 183 36t161 12q197 0 309 -78q95 -66 110 -172l236 134h184v-148q0 -153 38 -202q38 -48 143 -48h43v-156h-64q-175 0 -262 96q-82 91 -82 290l-288 -166q-64 -70 -176 -94z" />
    <glyph glyph-name="uni025E" unicode="&#x25e;" horiz-adv-x="1360" 
d="M753 988q-250 0 -347 -110q-99 -113 -99 -319q0 -208 99 -319q104 -116 314 -116q152 0 236 56t84 146q0 89 -78 144q-72 51 -209 51h-148v152h155q116 0 183 44q68 45 68 115q0 65 -70 110q-69 46 -188 46zM768 1148q197 0 309 -78q114 -79 114 -220q0 -93 -60 -157
q-60 -65 -172 -89q124 -24 193 -97t69 -181q0 -172 -129 -264q-128 -91 -367 -91q-313 0 -463 159q-149 159 -149 429q0 275 151 431q152 158 504 158z" />
    <glyph glyph-name="uni025F" unicode="&#x25f;" horiz-adv-x="569" 
d="M193 1120h184v-504h163v-164h-163v-472q0 -214 -81 -310t-263 -96h-70v156h49q105 0 143 48q38 49 38 202v472h-181v164h181v504z" />
    <glyph glyph-name="uni0260" unicode="&#x260;" horiz-adv-x="1425" 
d="M930 573q0 200 -82 310q-83 110 -232 110q-148 0 -230 -110q-83 -110 -83 -310q0 -199 83 -309q82 -110 230 -110q149 0 232 110q82 110 82 309zM1114 139q0 -286 -127 -425q-126 -140 -389 -140q-97 0 -183 14q-86 15 -167 45v179q81 -44 160 -65t161 -21q182 0 271 94
q90 96 90 286v91q-57 -99 -146 -148q-88 -49 -213 -49q-205 0 -332 157q-126 157 -126 416q0 260 126 417q127 157 332 157q125 0 213 -49q89 -49 146 -148v200q0 215 82 310q81 96 262 96h190v-156h-169q-105 0 -143 -48q-38 -49 -38 -202v-1011z" />
    <glyph glyph-name="uni0261" unicode="&#x261;" horiz-adv-x="1300" 
d="M930 573v392h-342q-135 0 -210 -103q-75 -101 -75 -289q0 -199 83 -309q82 -110 230 -110q149 0 232 110q82 110 82 309zM1114 139q0 -286 -127 -425q-126 -140 -389 -140q-97 0 -183 14q-86 15 -167 45v179q81 -44 160 -65t161 -21q182 0 271 94q90 96 90 286v91
q-57 -99 -146 -148q-88 -49 -213 -49q-205 0 -332 157q-126 157 -126 416q0 249 126 398q127 149 332 149h543v-981z" />
    <glyph glyph-name="uni0262" unicode="&#x262;" horiz-adv-x="1289" 
d="M937 158v273h-155v140h321v-528q-101 -36 -209 -54q-107 -18 -230 -18q-253 0 -402 159t-149 429q0 275 151 431q150 157 412 157q104 0 202 -27q99 -28 192 -83v-170q-95 62 -191 93t-195 31q-178 0 -278 -113q-99 -113 -99 -319q0 -205 99 -319q100 -113 278 -113
q80 0 141 7q62 9 112 24z" />
    <glyph glyph-name="uni0263" unicode="&#x263;" horiz-adv-x="1220" 
d="M610 488l322 632h192l-417 -804q107 -177 144 -260q59 -128 59 -227q0 -129 -75 -194t-225 -65t-225 65t-75 194q0 99 59 227q38 83 144 260l-417 804h192zM610 -274q68 0 98 27q28 24 28 69q0 69 -28 142q-40 100 -98 199q-58 -99 -98 -199q-28 -73 -28 -142
q0 -45 28 -69q31 -27 98 -27z" />
    <glyph glyph-name="uni0264" unicode="&#x264;" horiz-adv-x="1218" 
d="M735 223q0 35 -39 96q-38 59 -86 121q-47 -60 -88 -121q-39 -61 -39 -96q0 -43 29 -69q28 -27 98 -27q72 0 99 27q29 29 26 69zM385 37q-76 60 -76 192q0 65 70 183q38 68 115 174l-230 307q-64 71 -164 68h-49v157l70 -2q184 -3 272 -106l217 -289l217 289
q89 103 273 106l69 2v-157h-49q-99 3 -164 -68l-229 -307q76 -106 115 -174q69 -118 69 -183q0 -132 -75 -192q-74 -66 -226 -66q-150 0 -225 66z" />
    <glyph glyph-name="uni0265" unicode="&#x265;" horiz-adv-x="1298" 
d="M174 442v678h184v-671q0 -159 62 -239q62 -79 186 -79q149 0 236 95q86 96 86 259v635h184v-1546h-184v598q-66 -101 -156 -152q-88 -49 -205 -49q-193 0 -293 120t-100 351z" />
    <glyph glyph-name="uni0266" unicode="&#x266;" horiz-adv-x="1298" 
d="M1124 676v-676h-184v670q0 159 -62 238q-61 79 -186 79q-148 0 -235 -95q-86 -95 -86 -259v-633h-185v1150q0 215 82 310q81 96 262 96h254v-156h-231q-105 0 -143 -48q-39 -49 -39 -202v-204q66 101 155 151q90 50 207 50q194 0 292 -119q99 -119 99 -352z" />
    <glyph glyph-name="uni0267" unicode="&#x267;" horiz-adv-x="1298" 
d="M1124 676v-696q0 -214 -82 -310q-80 -96 -262 -96h-254v156h233q105 0 143 48q38 49 38 202v690q0 317 -248 317q-148 0 -235 -95q-86 -95 -86 -259v-633h-185v1150q0 215 82 310q81 96 262 96h254v-156h-231q-105 0 -143 -48q-39 -49 -39 -202v-204q131 201 362 201
q194 0 292 -119q99 -119 99 -352z" />
    <glyph glyph-name="uni0268" unicode="&#x268;" horiz-adv-x="569" 
d="M194 1120h184v-504h164v-164h-164v-452h-184v452h-180v164h180v504zM194 1556h184v-233h-184v233z" />
    <glyph glyph-name="uni0269" unicode="&#x269;" horiz-adv-x="693" 
d="M355 1120v-725q0 -145 34 -191q36 -48 144 -48h89v-156h-111q-180 0 -262 96q-82 99 -82 310l-1 714h189z" />
    <glyph glyph-name="uni026A" unicode="&#x26a;" horiz-adv-x="761" 
d="M116 956v164h528v-164h-168v-792h168v-164h-528v164h176v792h-176z" />
    <glyph glyph-name="uni026B" unicode="&#x26b;" horiz-adv-x="810" 
d="M317 1556h184v-787h1q0 -1 0.5 -1h0.5l1 -1q17 -9 30 -9q38 0 56 37q18 36 20 118h125q-2 -135 -53 -208q-50 -74 -142 -74q-19 0 -39 4v-635h-184v770q-1 1 -2 1q-3 2 -5 4l-4 2q-16 9 -30 9q-37 0 -56 -37q-18 -36 -20 -118h-125q2 135 53 208q51 74 142 74q26 0 47 -6
v649z" />
    <glyph glyph-name="uni026C" unicode="&#x26c;" horiz-adv-x="998" 
d="M417 1556h184v-770h250v-160h-250v-626h-184v596q0 15 -1 30h-61q-280 0 -279 189q2 246 246 246q53 0 95 -25v520zM401 786q-22 132 -78 132q-76 0 -78 -75q0 -57 92 -57h64z" />
    <glyph glyph-name="uni026D" unicode="&#x26d;" horiz-adv-x="570" 
d="M377 1556v-1586q0 -124 31 -182q30 -58 150 -58h49v-156h-70q-190 0 -267 102t-77 304v1576h184z" />
    <glyph glyph-name="uni026E" unicode="&#x26e;" horiz-adv-x="1446" 
d="M835 476q105 0 234 -56q99 -43 184 -151q81 -104 81 -242q0 -220 -152 -342q-151 -121 -432 -121q-94 0 -193 18q-100 19 -206 56v195q84 -49 184 -74t209 -25q191 0 289 75q100 76 100 218q0 132 -92 207q-91 74 -258 74h-174v166l430 499h-662v-973h-184v1556h184v-436
h869v-168z" />
    <glyph glyph-name="uni026F" unicode="&#x26f;" horiz-adv-x="1995" 
d="M942 216q-67 -121 -165 -182q-95 -60 -226 -60q-175 0 -270 123t-95 349v676h185v-670q0 -162 57 -240t174 -78q143 0 226 96q83 95 83 258v634h185v-670q0 -162 57 -240q58 -78 176 -78q141 0 224 96t83 258v634h185v-1122h-185v176q-61 -101 -151 -152
q-87 -50 -209 -50q-121 0 -208 62q-85 62 -126 180z" />
    <glyph glyph-name="uni0270" unicode="&#x270;" horiz-adv-x="1995" 
d="M942 216q-67 -121 -165 -182q-95 -60 -226 -60q-175 0 -270 123t-95 349v676h185v-670q0 -162 57 -240t174 -78q143 0 226 96q83 95 83 258v634h185v-670q0 -162 57 -240q58 -78 176 -78q141 0 224 96t83 258v634h185v-1548h-185v602q-61 -101 -151 -152
q-87 -50 -209 -50q-121 0 -208 62q-85 62 -126 180z" />
    <glyph glyph-name="uni0271" unicode="&#x271;" horiz-adv-x="1995" 
d="M1065 905q69 125 165 183q96 59 226 59q176 0 270 -123q95 -121 95 -348v-696q0 -214 -82 -310q-80 -96 -262 -96h-254v156h233q105 0 143 48q38 49 38 202l-1 690q0 161 -57 239t-174 78q-142 0 -226 -95q-83 -95 -83 -259v-633h-185v670q0 162 -57 240q-57 77 -176 77
q-141 0 -224 -95t-83 -259v-633h-185v1120h185v-174q63 103 151 152t209 49q122 0 207 -62q86 -61 127 -180z" />
    <glyph glyph-name="uni0272" unicode="&#x272;" horiz-adv-x="1323" 
d="M1131 676v-676h-184v670q0 159 -62 238q-61 79 -186 79q-148 0 -235 -95t-87 -259v-653q0 -214 -81 -310t-263 -96h-70v156h49q105 0 143 48q38 49 38 202v1140h185v-174q66 101 156 151q89 50 206 50q194 0 292 -119q99 -119 99 -352z" />
    <glyph glyph-name="uni0273" unicode="&#x273;" horiz-adv-x="1315" 
d="M1022 -330q-82 96 -82 310v690q0 159 -62 238q-61 79 -186 79q-148 0 -235 -95q-86 -95 -86 -259v-633h-185v1120h185v-174q66 101 155 151q90 50 207 50q194 0 292 -119q99 -119 99 -352v-696q0 -153 38 -202q38 -48 143 -48h49v-156h-70q-181 0 -262 96z" />
    <glyph glyph-name="uni0274" unicode="&#x274;" horiz-adv-x="1298" 
d="M179 1120h272l477 -903v903h196v-1120h-272l-477 876v-876h-196v1120z" />
    <glyph glyph-name="uni0275" unicode="&#x275;" horiz-adv-x="1253" 
d="M625 991q-147 0 -221 -97q-75 -96 -93 -223h628q-18 127 -93 223q-74 97 -221 97zM626 127q149 0 233 116t84 264h-634q0 -148 84 -264q85 -116 233 -116zM627 1147q240 0 377 -156t137 -432q0 -274 -137 -431t-377 -157q-241 0 -377 157q-137 157 -137 431
q0 276 137 432q136 156 377 156z" />
    <glyph glyph-name="uni0276" unicode="&#x276;" horiz-adv-x="1757" 
d="M1558 1120v-154h-556v-291h533v-155h-533v-364h570v-156h-799q-325 0 -492 142q-168 143 -168 419q0 275 168 416q167 143 492 143h785zM815 990h-37q-240 0 -360 -108q-120 -107 -120 -323q0 -217 120 -325q120 -109 360 -109h37v865z" />
    <glyph glyph-name="uni0277" unicode="&#x277;" horiz-adv-x="1491" 
d="M840 660v-196q0 -163 48 -254q48 -90 102 -90q53 0 91 48q73 91 73 248q0 272 -104 424t-305 152t-302 -152t-101 -424q0 -157 73 -248q39 -48 91 -48q54 0 102 90q48 91 48 254v196h184zM148 460q0 341 161 514q161 174 434 174t436 -174t163 -558q0 -108 -29 -197
q-28 -89 -75 -143q-97 -112 -204 -112q-108 0 -189 82q-81 81 -93 198q-18 -122 -96 -200q-79 -80 -186 -80q-106 0 -214 118q-108 119 -108 378z" />
    <glyph glyph-name="uni0278" unicode="&#x278;" horiz-adv-x="1351" 
d="M764 1556v-413q200 0 332 -153q137 -156 137 -431q0 -274 -137 -431q-132 -153 -332 -153v-401h-183v401q-199 0 -333 153q-136 157 -136 431q0 275 136 431q134 153 333 153v413h183zM764 139q113 0 190 103q84 115 85 317q1 200 -85 317q-77 103 -190 103v-840z
M581 139v840q-112 0 -189 -103q-87 -117 -86 -317q1 -202 86 -317q77 -103 189 -103z" />
    <glyph glyph-name="uni0279" unicode="&#x279;" horiz-adv-x="848" 
d="M471 174q-114 -201 -377 -201q-37 0 -93 10l-1 189q60 -35 148 -35q156 0 240 101q83 102 83 292v590h185v-1120h-185v174z" />
    <glyph glyph-name="uni027A" unicode="&#x27a;" horiz-adv-x="848" 
d="M471 174q-114 -201 -377 -201q-37 0 -93 10l-1 189q60 -35 148 -35q159 0 241 103t82 290v1016h185v-1546h-185v174z" />
    <glyph glyph-name="uni027B" unicode="&#x27b;" horiz-adv-x="847" 
d="M471 174q-114 -201 -377 -201q-37 0 -93 10l-1 189q60 -35 148 -35q156 0 240 101q83 102 83 292v590h185v-1140q0 -153 38 -202q38 -48 143 -48h49v-156h-70q-181 0 -262 96q-82 96 -82 310z" />
    <glyph glyph-name="uni027C" unicode="&#x27c;" horiz-adv-x="842" 
d="M842 948q-31 18 -68 26q-36 9 -80 9q-156 0 -240 -101q-83 -101 -83 -292v-1014h-185v1544h185v-174q58 102 151 152q93 49 226 49q20 0 42 -3q20 -1 42 -6h5q2 -1 4 -1z" />
    <glyph glyph-name="uni027D" unicode="&#x27d;" horiz-adv-x="841" 
d="M842 948q-31 18 -68 26q-36 9 -80 9q-157 0 -240 -101q-84 -101 -84 -292v-610q0 -153 38 -202q38 -48 143 -48h233v-156h-254q-181 0 -262 96q-82 96 -82 310v1140h185v-174q58 102 151 152q93 49 226 49q20 0 42 -3q20 -1 42 -6h5q2 -1 4 -1z" />
    <glyph glyph-name="uni027E" unicode="&#x27e;" horiz-adv-x="1086" 
d="M480 741v-741h-184v741q0 215 82 310q81 96 262 96h254v-156h-233q-105 0 -143 -49q-38 -48 -38 -201z" />
    <glyph glyph-name="uni027F" unicode="&#x27f;" horiz-adv-x="1086" 
d="M714 741v-741h-184v741q0 153 -38 201q-38 49 -143 49h-233v156h254q182 0 262 -96q82 -95 82 -310z" />
    <glyph glyph-name="uni0280" unicode="&#x280;" horiz-adv-x="1236" 
d="M788 525q48 -10 106 -68q57 -58 107 -151l174 -306h-195l-162 287q-74 128 -136 157q-61 29 -142 29h-169v-473h-185v1120h388q218 0 325 -79t107 -244q0 -105 -56 -175q-55 -70 -162 -97zM371 965v-337h198q119 0 183 43q63 43 63 121q0 77 -59 125q-58 48 -187 48h-198
z" />
    <glyph glyph-name="uni0281" unicode="&#x281;" horiz-adv-x="1236" 
d="M186 1120h185v-473h169q81 0 142 29q63 29 136 157l162 287h195l-174 -306q-50 -93 -107 -151q-58 -58 -106 -68q107 -27 162 -97q56 -70 56 -175q0 -165 -107 -244t-325 -79h-388v1120zM371 492v-337h198q129 0 187 48q59 49 59 125q0 78 -63 121q-64 43 -183 43h-198z
" />
    <glyph glyph-name="uni0282" unicode="&#x282;" horiz-adv-x="1067" 
d="M907 1087v-174q-78 41 -162 60q-84 20 -174 20q-136 0 -205 -42t-69 -126q0 -64 49 -101q49 -36 197 -69l63 -14q197 -41 278 -119q83 -76 83 -213q0 -156 -123 -247q-124 -91 -340 -91q-100 0 -188 17l-21 4v-12q0 -153 38 -202q38 -48 143 -48h233v-156h-254
q-181 0 -263 96q-81 96 -81 310v251q204 -106 397 -106q131 0 200 45q70 44 70 125q0 75 -50 115q-51 40 -222 77l-64 15q-171 36 -247 110q-76 75 -76 205q0 158 112 244q113 86 318 86q102 0 192 -15t166 -45z" />
    <glyph glyph-name="uni0283" unicode="&#x283;" horiz-adv-x="688" 
d="M190 -20v1218q0 188 87 272q87 86 276 86h174v-153h-176q-99 0 -137 -40q-39 -40 -39 -144v-1239q0 -214 -81 -310t-263 -96h-70v156h49q105 0 142 48q38 49 38 202z" />
    <glyph glyph-name="uni0284" unicode="&#x284;" horiz-adv-x="688" 
d="M190 1198q0 188 87 272q87 86 276 86h174v-153h-176q-99 0 -137 -40q-39 -40 -39 -144v-600l1 -3h162v-164h-163v-472q0 -214 -81 -310t-263 -96h-70v156h49q105 0 142 48q38 49 38 202v472h-180v164h180v582z" />
    <glyph glyph-name="uni0285" unicode="&#x285;" horiz-adv-x="945" 
d="M407 -20v808q0 104 -39 144q-38 40 -137 40h-176v153h174q189 0 276 -85t87 -273v-787q0 -153 38 -202q37 -48 142 -48h49v-156h-70q-181 0 -263 96q-81 96 -81 310z" />
    <glyph glyph-name="uni0286" unicode="&#x286;" horiz-adv-x="688" 
d="M375 0h183v-155h-191q-18 -111 -71 -175q-81 -96 -263 -96q-303 0 -303 216q0 210 270 210h190v1198q0 188 87 272q87 86 276 86h174v-153h-176q-99 0 -137 -40q-39 -40 -39 -144v-1219zM180 -154h-179q-118 0 -116 -51q3 -65 127 -65q110 0 143 48q17 24 25 68z" />
    <glyph glyph-name="uni0287" unicode="&#x287;" horiz-adv-x="803" 
d="M434 -320v318h-379v143h379v608q0 137 -38 176q-36 39 -152 39h-189v154h189q213 0 294 -80q81 -79 81 -289v-608h135v-143h-135v-318h-185z" />
    <glyph glyph-name="uni0288" unicode="&#x288;" horiz-adv-x="803" 
d="M375 1438v-318h379v-143h-379v-997q0 -153 38 -202q38 -48 143 -48h202v-156h-224q-181 0 -262 96q-82 96 -82 310v997h-135v143h135v318h185z" />
    <glyph glyph-name="uni0289" unicode="&#x289;" horiz-adv-x="1298" 
d="M174 616v504h184v-504h570v504h184v-504h186v-164h-186v-452h-184v172q-66 -101 -156 -152q-88 -49 -205 -49q-193 0 -293 120t-100 351v10h-174v164h174zM927 451h-569v-2q0 -159 62 -239q62 -79 186 -79q143 0 232 93q89 94 89 227z" />
    <glyph glyph-name="uni028A" unicode="&#x28a;" horiz-adv-x="1265" 
d="M1156 956h-236q97 -72 160 -190q64 -117 64 -269q0 -235 -142 -381t-367 -146t-367 146t-142 381q0 152 64 269q63 118 160 190h-237v164h442v-220q-102 -66 -170 -174q-68 -106 -68 -246q0 -159 88 -256t232 -97t232 97t88 256q0 140 -68 246q-68 108 -170 174l1 220
h436v-164z" />
    <glyph glyph-name="uni028B" unicode="&#x28b;" horiz-adv-x="1225" 
d="M1116 527q0 -238 -142 -381q-145 -146 -367 -146h-70q-181 0 -263 96q-81 96 -81 310v714h184v-714q0 -153 38 -202q40 -49 143 -48h51q144 0 232 98q88 99 88 256q0 233 -74 333q-73 99 -183 129v150q104 -8 192 -56q167 -91 218 -262q34 -115 34 -277z" />
    <glyph glyph-name="uni028C" unicode="&#x28c;" horiz-adv-x="1212" 
d="M61 0l420 1120h250l420 -1120h-195l-350 940l-350 -940h-195z" />
    <glyph glyph-name="uni028D" unicode="&#x28d;" horiz-adv-x="1675" 
d="M1589 0h-184l-230 874l-229 -874h-217l-230 874l-229 -874h-184l293 1120h217l241 -918l242 918h217z" />
    <glyph glyph-name="uni028E" unicode="&#x28e;" horiz-adv-x="1212" 
d="M61 0l492 1234q80 200 152 261q74 61 198 61h147v-154h-108q-76 0 -118 -36q-46 -35 -93 -170l-33 -94l453 -1102h-195l-351 876l-349 -876h-195z" />
    <glyph glyph-name="uni028F" unicode="&#x28f;" horiz-adv-x="1251" 
d="M102 1120h217l293 -456l302 456h217l-419 -624v-496h-203v496z" />
    <glyph glyph-name="uni0290" unicode="&#x290;" horiz-adv-x="1075" 
d="M113 1120h874v-168l-692 -805h692v-167q0 -153 38 -202q38 -48 143 -48h47v-156h-70q-181 0 -263 96q-81 96 -81 310v20h-713v168l692 805h-667v147z" />
    <glyph glyph-name="uni0291" unicode="&#x291;" horiz-adv-x="1075" 
d="M113 1120h874v-168l-692 -805h175q34 162 118 233q65 55 161 55q132 0 190 -87q38 -57 38 -144q1 -96 -61 -143q-82 -61 -208 -61h-105q-3 -51 -3 -111h-153q0 59 3 111h-362v168l692 805h-667v147zM624 147h56q138 0 138 54q0 93 -70 91q-88 -2 -124 -145z" />
    <glyph glyph-name="uni0292" unicode="&#x292;" horiz-adv-x="1183" 
d="M572 476q107 0 234 -56q98 -42 184 -151q81 -104 81 -242q0 -220 -152 -342q-151 -121 -432 -121q-94 0 -193 18q-100 19 -206 56v195q84 -49 184 -74t209 -25q191 0 289 75q100 76 100 218q0 132 -92 207q-93 74 -258 74h-174v166l430 499h-667v147h874v-168z" />
    <glyph glyph-name="uni0293" unicode="&#x293;" horiz-adv-x="1183" 
d="M487 -436q-334 0 -333 189q2 251 300 246q246 -4 404 -63q12 42 12 91q0 134 -92 207q-94 74 -258 74h-174v166l430 499h-667v147h874v-168l-411 -476q105 0 234 -56q100 -43 184 -151q81 -102 81 -242q0 -112 -39 -198q100 -101 100 -265h-153q0 83 -40 138l-20 -17
q-151 -121 -432 -121zM777 -186q-125 42 -322 42q-130 0 -132 -75q0 -46 158 -47q191 0 289 75z" />
    <glyph glyph-name="uni0294" unicode="&#x294;" horiz-adv-x="1045" 
d="M340 798h63q192 0 278 114q58 77 58 174q-1 134 -58 198q-99 114 -278 114q-79 0 -159 -22q-78 -21 -156 -64v172q76 35 157 52q81 18 166 18q275 0 413 -157q109 -125 109 -311q0 -169 -108 -285q-112 -119 -282 -149v-652h-202z" />
    <glyph glyph-name="uni0295" unicode="&#x295;" horiz-adv-x="1045" 
d="M680 798v-798h-202v652q-169 30 -282 149q-108 116 -108 285q0 186 110 311q138 157 412 157q86 0 166 -18q81 -17 157 -52v-172q-78 43 -157 64q-78 22 -158 22q-178 0 -278 -114q-57 -64 -58 -198q0 -97 58 -174q86 -114 278 -114h62z" />
    <glyph glyph-name="uni0296" unicode="&#x296;" horiz-adv-x="1045" 
d="M340 756l1 798h202v-652q170 -30 282 -149q108 -115 108 -285q0 -186 -109 -311q-138 -157 -413 -157q-85 0 -166 18q-81 17 -157 52v172q78 -43 156 -64q80 -22 159 -22q179 0 278 114q57 65 58 198q0 98 -58 174q-86 114 -278 114h-63z" />
    <glyph glyph-name="uni0297" unicode="&#x297;" horiz-adv-x="1045" 
d="M88 1088q0 186 110 311q138 157 412 157q86 0 166 -18q81 -17 157 -52v-172q-73 40 -157 64q-78 22 -158 22q-175 0 -278 -114q-58 -64 -58 -198v-1056q0 -133 58 -198q103 -114 278 -114q80 0 158 22q79 21 157 64v-172q-76 -35 -157 -52q-80 -18 -166 -18
q-274 0 -412 157q-110 125 -110 311v1056z" />
    <glyph glyph-name="uni0298" unicode="&#x298;" horiz-adv-x="1612" 
d="M693 745q0 47 34 80q32 34 80 34q47 0 80 -34q32 -33 32 -80q0 -46 -33 -80q-33 -33 -80 -33q-46 0 -79 33q-34 34 -34 80zM807 1356q-220 0 -349 -164q-130 -163 -130 -447q0 -282 130 -446q129 -164 349 -164q221 0 349 164t128 446q0 284 -128 447q-128 164 -349 164z
M807 1520q314 0 502 -210q188 -211 188 -565q0 -352 -188 -563t-502 -211q-315 0 -503 210q-189 210 -189 564t189 565q188 210 503 210z" />
    <glyph glyph-name="uni0299" unicode="&#x299;" horiz-adv-x="1187" 
d="M370 516v-369h262q126 0 192 47q66 48 66 138t-66 137t-192 47h-262zM370 973v-310h242q104 0 170 41q66 43 66 116q0 74 -66 114q-66 39 -170 39h-242zM186 1120h438q197 0 303 -72q106 -71 106 -205q0 -103 -54 -163q-54 -61 -160 -76q127 -24 197 -100t70 -190
q0 -150 -116 -232q-114 -82 -329 -82h-455v1120z" />
    <glyph glyph-name="uni029A" unicode="&#x29a;" horiz-adv-x="1360" 
d="M581 988q-118 0 -188 -46q-70 -45 -70 -110q0 -70 68 -115q68 -44 183 -44h155v-152h-148q-136 0 -209 -51q-78 -55 -78 -144q0 -90 84 -146q85 -56 236 -56q210 0 314 116q99 111 99 319q0 206 -99 319q-96 110 -347 110zM566 1148q353 0 504 -158q151 -156 151 -431
q0 -270 -149 -429t-463 -159q-238 0 -367 91q-129 92 -129 264q0 108 69 181t193 97q-112 24 -172 89q-60 64 -60 157q0 141 114 220q113 78 309 78z" />
    <glyph glyph-name="uni029B" unicode="&#x29b;" horiz-adv-x="1450" 
d="M937 158v273h-155v140h321v-528q-101 -36 -209 -54q-107 -18 -230 -18q-253 0 -402 159t-149 429q0 275 151 431q150 157 412 157q56 0 108 -7q52 -8 101 -23v33q0 215 81 310q82 96 263 96h254v-156h-231q-105 0 -144 -48q-38 -49 -38 -202v-283q-95 62 -191 93t-195 31
q-178 0 -278 -113q-99 -113 -99 -319q0 -205 99 -319q100 -113 278 -113q80 0 141 7q62 9 112 24z" />
    <glyph glyph-name="uni029C" unicode="&#x29c;" horiz-adv-x="1339" 
d="M186 1120h185v-457h597v457h185v-1120h-185v516h-597v-516h-185v1120z" />
    <glyph glyph-name="uni029D" unicode="&#x29d;" horiz-adv-x="598" 
d="M193 1556h184v-233h-184v233zM193 1120h184v-1120h181v-139h-189q-18 -120 -73 -191q-75 -96 -263 -96q-303 0 -303 221q0 206 270 205h193v1120zM185 -139h-184q-117 0 -116 -66q0 -64 127 -65q95 0 138 48q29 32 35 83z" />
    <glyph glyph-name="uni029E" unicode="&#x29e;" horiz-adv-x="1366" 
d="M1180 -436h-185v919l-549 -483h-235l594 524l-619 596h240l569 -547v547h185v-1556z" />
    <glyph glyph-name="uni029F" unicode="&#x29f;" horiz-adv-x="1038" 
d="M186 1120h184v-973h639v-147h-823v1120z" />
    <glyph glyph-name="uni02A0" unicode="&#x2a0;" horiz-adv-x="1489" 
d="M303 559q0 -202 83 -319q85 -115 230 -115q146 0 230 115q84 117 84 319q0 203 -84 319q-84 115 -230 115q-145 0 -230 -115q-83 -116 -83 -319zM930 168q-59 -100 -146 -148q-88 -49 -213 -49q-202 0 -331 162q-127 162 -127 426t127 426q129 162 331 162q125 0 213 -49
q88 -48 146 -148v198q0 215 82 310q81 96 262 96h254v-156h-231q-105 0 -143 -48q-39 -49 -39 -202v-1574h-185v594z" />
    <glyph glyph-name="uni02A1" unicode="&#x2a1;" horiz-adv-x="1045" 
d="M340 798h63q192 0 278 114q58 77 58 174q-1 134 -58 198q-99 114 -278 114q-79 0 -159 -22q-78 -21 -156 -64v172q76 35 157 52q81 18 166 18q275 0 413 -157q109 -125 109 -311q0 -169 -108 -285q-112 -119 -282 -149v-212h231v-164h-231v-276h-202v276h-229v164h228
v358z" />
    <glyph glyph-name="uni02A2" unicode="&#x2a2;" horiz-adv-x="1045" 
d="M247 276v164h231v212q-169 30 -282 149q-108 116 -108 285q0 186 110 311q138 157 412 157q86 0 166 -18q81 -17 157 -52v-172q-78 43 -157 64q-78 22 -158 22q-178 0 -278 -114q-57 -64 -58 -198q0 -97 58 -174q86 -114 278 -114h62v-358h229v-164h-229v-276h-202v276
h-231z" />
    <glyph glyph-name="uni02A3" unicode="&#x2a3;" horiz-adv-x="2077" 
d="M303 559q0 -202 83 -319q85 -115 230 -115q146 0 230 115q84 117 84 319q0 203 -84 319q-84 115 -230 115q-145 0 -230 -115q-83 -116 -83 -319zM930 950v606h184v-436h873v-168l-692 -805h692v-147h-1057v168q-58 -100 -146 -148q-88 -49 -213 -49q-202 0 -331 162
q-127 162 -127 426t127 426q129 162 331 162q125 0 213 -49q88 -48 146 -148zM1114 973v-775l666 775h-666z" />
    <glyph glyph-name="uni02A4" unicode="&#x2a4;" horiz-adv-x="2166" 
d="M1114 973v-973h-184v168q-58 -100 -146 -148q-88 -49 -213 -49q-202 0 -331 162q-127 162 -127 426t127 426q129 162 331 162q125 0 213 -49q88 -48 146 -148v606h184v-436h874v-168l-411 -476q107 0 234 -56q98 -42 184 -151q81 -104 81 -242q0 -220 -152 -342
q-151 -121 -432 -121q-94 0 -193 18q-100 19 -206 56v195q84 -49 184 -74t209 -25q191 0 289 75q100 76 100 218q0 132 -92 207q-93 74 -258 74h-174v166l430 499h-667zM303 559q0 -202 83 -319q85 -115 230 -115q146 0 230 115q84 117 84 319q0 203 -84 319
q-84 115 -230 115q-145 0 -230 -115q-83 -116 -83 -319z" />
    <glyph glyph-name="uni02A5" unicode="&#x2a5;" horiz-adv-x="2074" 
d="M303 559q0 -202 83 -319q85 -115 230 -115q146 0 230 115q84 117 84 319q0 203 -84 319q-84 115 -230 115q-145 0 -230 -115q-83 -116 -83 -319zM1114 973v-774l665 774h-665zM1114 1120h872v-168l-692 -805h175q60 288 279 288q227 0 228 -246q2 -189 -333 -189h-41
q-3 -51 -3 -111h-153q0 59 3 111h-519v168q-58 -100 -146 -148q-88 -49 -213 -49q-202 0 -331 162q-127 162 -127 426t127 426q129 162 331 162q125 0 213 -49q88 -48 146 -148v606h184v-436zM1623 147h20q174 0 174 54q0 92 -70 91q-88 -2 -124 -145z" />
    <glyph glyph-name="uni02A6" unicode="&#x2a6;" horiz-adv-x="1700" 
d="M375 1438v-318h379v-143h-379v-608q0 -136 37 -176q38 -39 153 -39h576q131 0 200 45q70 44 70 96q0 74 -47 111q-46 39 -225 81l-64 15q-171 36 -247 110q-76 75 -76 205q0 158 112 244q113 86 318 86q102 0 192 -15t166 -45v-174q-78 41 -162 60q-84 20 -174 20
q-136 0 -206 -42q-68 -42 -68 -126q0 -64 49 -101q49 -36 197 -69l63 -14q198 -44 279 -119q82 -76 82 -213q0 -145 -124 -247q-76 -62 -339 -62h-572q-213 0 -294 80q-81 79 -81 289v608h-135v143h135v318h185z" />
    <glyph glyph-name="uni02A7" unicode="&#x2a7;" horiz-adv-x="1249" 
d="M375 1438v-318h376v78q0 182 87 272q81 86 276 86h174v-153h-176q-99 0 -137 -40q-39 -40 -39 -144l2 -1239q0 -214 -81 -310t-263 -96h-70v156h49q105 0 143 48q38 49 38 202v20h-189q-213 0 -294 80q-81 79 -81 289v608h-135v143h135v318h185zM753 154v24
q-2 406 -2 799h-376v-608q0 -136 37 -176q38 -39 153 -39h188z" />
    <glyph glyph-name="uni02A8" unicode="&#x2a8;" horiz-adv-x="1594" 
d="M375 1438v-318h379v-122q149 149 404 149q86 0 166 -17q81 -18 157 -53v-172q-78 43 -157 65q-78 21 -158 21q-178 0 -278 -113q-99 -113 -99 -319q0 -205 99 -319l8 -9q80 171 285 171q299 0 300 -246q0 -118 -101 -159q-74 -30 -232 -30q-84 0 -157 18q-2 -49 -2 -126
l-153 -3q0 80 6 144h-277q-213 0 -294 80q-81 79 -81 289v608h-135v143h135v318h185zM1017 151q67 -24 149 -24q95 0 116 7q32 11 30 50q-1 75 -132 75q-114 0 -154 -86q-4 -10 -9 -22zM723 154q-128 158 -128 405q0 263 139 418h-359v-608q0 -136 37 -176q38 -39 153 -39
h158z" />
    <glyph glyph-name="uni02A9" unicode="&#x2a9;" horiz-adv-x="1737" 
d="M1647 676v-696q0 -214 -82 -310q-80 -96 -262 -96h-254v156h233q105 0 143 48q38 49 38 202v690q0 159 -62 238q-61 79 -186 79q-148 0 -235 -95q-86 -95 -86 -259v-633h-185v977h-301v-977h-185v977h-176v143h176v78q0 188 87 272q87 86 276 86h174v-153h-176
q-99 0 -138 -40q-38 -40 -38 -144v-99h486v-174q66 101 155 151q90 50 207 50q194 0 292 -119q99 -119 99 -352z" />
    <glyph glyph-name="uni02AA" unicode="&#x2aa;" horiz-adv-x="1445" 
d="M193 1556h184v-1402h509q131 0 200 45q70 44 70 96q0 74 -47 111q-46 39 -225 81l-64 15q-171 36 -247 110q-76 75 -76 205q0 158 112 244q113 86 318 86q102 0 192 -15t166 -45v-174q-78 41 -162 60q-84 20 -174 20q-136 0 -205 -42t-69 -126q0 -64 49 -101
q49 -36 197 -69l63 -14q198 -44 280 -119q81 -76 81 -213q0 -145 -124 -247q-76 -62 -339 -62h-689v1556z" />
    <glyph glyph-name="uni02AB" unicode="&#x2ab;" horiz-adv-x="1340" 
d="M193 1556h184v-436h873v-168l-692 -805h692v-147h-1057v1556zM377 973v-775l666 775h-666z" />
    <glyph glyph-name="uni02AC" unicode="&#x2ac;" horiz-adv-x="1055" 
d="M54 597h116l145 -489l144 489h137l145 -489l144 489h116l-185 -627h-136l-152 514l-153 -514h-136zM54 1311h116l145 -489l144 489h137l145 -489l144 489h116l-185 -627h-136l-152 514l-153 -514h-136z" />
    <glyph glyph-name="uni02AD" unicode="&#x2ad;" horiz-adv-x="1055" 
d="M54 597h947v-424h-143v261h-661v-261h-143v424zM54 1311h947v-424h-143v261h-661v-261h-143v424z" />
    <glyph glyph-name="uni02AE" unicode="&#x2ae;" horiz-adv-x="1354" 
d="M983 172q-131 -201 -362 -201q-193 0 -292 119q-99 120 -99 352v708q0 153 -38 202q-38 48 -143 48h-49v156h70q182 0 262 -96q82 -95 82 -310v-702q0 -316 248 -317q149 0 235 95q86 96 86 259v633h185v-1556h-185v610z" />
    <glyph glyph-name="uni02AF" unicode="&#x2af;" horiz-adv-x="1359" 
d="M983 172q-131 -201 -362 -201q-193 0 -292 119q-99 120 -99 352v708q0 153 -38 202q-38 48 -143 48h-49v156h70q182 0 262 -96q82 -95 82 -310v-702q0 -316 248 -317q149 0 235 95q86 96 86 259v633h185v-1138q-4 -148 36 -199q41 -51 144 -51h50v-156h-70
q-181 0 -261 92q-79 93 -84 314v192z" />
    <glyph glyph-name="uni02B0" unicode="&#x2b0;" horiz-adv-x="828" 
d="M708 1047v-379h-116v375q0 89 -39 133q-39 45 -117 45q-94 0 -148 -53q-54 -54 -54 -146v-354h-117v871h117v-341q41 56 98 84t130 28q122 0 184 -67t62 -196z" />
    <glyph glyph-name="uni02B1" unicode="&#x2b1;" horiz-adv-x="817" 
d="M708 1047v-379h-116v375q0 89 -39 133q-39 45 -117 45q-94 0 -148 -53q-54 -54 -54 -146v-354h-117v644q0 120 51 174q52 53 166 53h160v-87h-146q-66 0 -90 -27t-24 -113v-114q41 56 98 84t130 28q122 0 184 -67t62 -196z" />
    <glyph glyph-name="uni02B2" unicode="&#x2b2;" horiz-adv-x="358" 
d="M122 1295h116v-638q0 -120 -52 -174q-51 -54 -165 -54h-44v88h31q66 0 90 27q24 28 24 113v638zM122 1539h116v-130h-116v130z" />
    <glyph glyph-name="uni02B3" unicode="&#x2b3;" horiz-adv-x="530" 
d="M530 1199q-19 11 -42 15q-22 4 -51 4q-97 0 -151 -56q-52 -57 -52 -164v-330h-117v627h117v-97q37 57 94 84q59 28 143 28q12 0 27 -1h3t2 -1q12 0 27 -3v-106z" />
    <glyph glyph-name="uni02B4" unicode="&#x2b4;" horiz-adv-x="605" 
d="M72 764q20 -11 42 -14q23 -5 51 -5q98 0 151 57q52 57 52 163v330h116v-627h-116v97q-36 -57 -94 -85q-59 -27 -143 -27q-12 0 -27 1h-2.5t-2.5 1q-12 0 -27 3v106z" />
    <glyph glyph-name="uni02B5" unicode="&#x2b5;" horiz-adv-x="606" 
d="M72 764q20 -11 42 -14q23 -5 51 -5q98 0 151 57q52 57 52 163v330h116v-638q0 -85 24 -113q24 -27 90 -27h31v-88h-44q-114 0 -165 54q-52 54 -52 174v108q-36 -57 -94 -85q-59 -27 -143 -27q-12 0 -27 1h-2.5t-2.5 1q-12 0 -27 3v106z" />
    <glyph glyph-name="uni02B6" unicode="&#x2b6;" horiz-adv-x="776" 
d="M411 1001q68 -15 102 -54q35 -39 35 -98q0 -91 -67 -136q-68 -45 -205 -45h-244v627h116v-265h107q62 0 98 21q37 20 77 83l102 161h123l-110 -171q-33 -53 -66 -83q-34 -30 -68 -40zM148 755h125q75 0 114 23q41 25 41 71q0 47 -41 70q-39 25 -114 25h-125v-189z" />
    <glyph glyph-name="uni02B7" unicode="&#x2b7;" horiz-adv-x="1055" 
d="M54 1295h116l145 -489l144 489h137l145 -489l144 489h116l-185 -627h-136l-152 514l-153 -514h-136z" />
    <glyph glyph-name="uni02B8" unicode="&#x2b8;" horiz-adv-x="763" 
d="M415 610q-49 -112 -96 -146q-46 -35 -124 -35h-93v87h68q48 0 74 20q27 20 59 95l21 47l-286 617h123l221 -490l220 490h123z" />
    <glyph glyph-name="uni02B9" unicode="&#x2b9;" horiz-adv-x="570" 
d="M160 1140l65 498h190l-110 -498h-145z" />
    <glyph glyph-name="uni02BA" unicode="&#x2ba;" horiz-adv-x="942" 
d="M160 1140l65 498h190l-110 -498h-145zM532 1140l65 498h190l-110 -498h-145z" />
    <glyph glyph-name="uni02BB" unicode="&#x2bb;" horiz-adv-x="651" 
d="M385 1001h-211v173l164 319h129l-82 -319v-173z" />
    <glyph glyph-name="uni02BC" unicode="&#x2bc;" horiz-adv-x="651" 
d="M260 1493h211v-152l-164 -319h-129l82 319v152z" />
    <glyph glyph-name="uni02BD" unicode="&#x2bd;" horiz-adv-x="651" 
d="M407 1754v-172l82 -320h-129l-164 320v172h211z" />
    <glyph glyph-name="uni02BE" unicode="&#x2be;" horiz-adv-x="629" 
d="M117 1007v123q65 0 108 44q44 44 44 108q0 63 -44 107q-43 44 -108 44v123q116 0 195 -80q79 -78 79 -194q0 -115 -79 -195t-195 -80z" />
    <glyph glyph-name="uni02BF" unicode="&#x2bf;" horiz-adv-x="629" 
d="M391 1007q-115 0 -195 80q-79 80 -79 195q0 116 79 194q80 80 195 80v-123q-64 0 -108 -44t-44 -107q0 -64 44 -108t108 -44v-123z" />
    <glyph glyph-name="uni02C0" unicode="&#x2c0;" horiz-adv-x="757" 
d="M276 1115h39q122 0 176 64q36 42 36 97q-1 75 -36 111q-63 64 -176 64q-49 0 -100 -12q-49 -12 -98 -36v96q48 20 99 29q52 10 104 10q174 0 261 -88q68 -70 68 -174q0 -94 -68 -159q-70 -67 -177 -84v-365h-128v447z" />
    <glyph glyph-name="uni02C1" unicode="&#x2c1;" horiz-adv-x="757" 
d="M490 1115v-447h-127v365q-107 17 -178 84q-68 65 -68 159q0 104 69 174q88 88 260 88q53 0 104 -10q51 -9 99 -29v-96q-49 24 -99 36q-49 12 -99 12q-112 0 -175 -64q-36 -36 -37 -111q0 -55 37 -97q54 -64 175 -64h39z" />
    <glyph glyph-name="uni02C2" unicode="&#x2c2;" horiz-adv-x="1024" 
d="M267 1467l490 245v-139l-359 -180l359 -180v-139l-490 245v148z" />
    <glyph glyph-name="uni02C3" unicode="&#x2c3;" horiz-adv-x="1024" 
d="M757 1319l-490 -245v139l359 180l-359 180v139l490 -245v-148z" />
    <glyph glyph-name="uni02C4" unicode="&#x2c4;" horiz-adv-x="1024" 
d="M438 1638h148l245 -490h-139l-180 359l-180 -359h-139z" />
    <glyph glyph-name="uni02C5" unicode="&#x2c5;" horiz-adv-x="1024" 
d="M438 1148l-245 490h139l180 -359l180 359h139l-245 -490h-148z" />
    <glyph glyph-name="circumflex" unicode="&#x2c6;" horiz-adv-x="1024" 
d="M438 1638h148l245 -376h-139l-180 245l-180 -245h-139z" />
    <glyph glyph-name="caron" unicode="&#x2c7;" horiz-adv-x="1024" 
d="M438 1262l-245 376h139l180 -245l180 245h139l-245 -376h-148z" />
    <glyph glyph-name="uni02C8" unicode="&#x2c8;" horiz-adv-x="563" 
d="M350 1554v-555h-136v555h136z" />
    <glyph glyph-name="uni02C9" unicode="&#x2c9;" horiz-adv-x="1024" 
d="M213 1526h598v-148h-598v148z" />
    <glyph glyph-name="uni02CA" unicode="&#x2ca;" horiz-adv-x="1024" 
d="M651 1638h199l-326 -376h-153z" />
    <glyph glyph-name="uni02CB" unicode="&#x2cb;" horiz-adv-x="1024" 
d="M367 1638l282 -374h-153l-326 374h197z" />
    <glyph glyph-name="uni02CC" unicode="&#x2cc;" horiz-adv-x="563" 
d="M350 252v-555h-136v555h136z" />
    <glyph glyph-name="uni02CD" unicode="&#x2cd;" horiz-adv-x="1024" 
d="M213 -172h598v-148h-598v148z" />
    <glyph glyph-name="uni02CE" unicode="&#x2ce;" horiz-adv-x="1024" 
d="M367 -110l282 -374h-153l-326 374h197z" />
    <glyph glyph-name="uni02CF" unicode="&#x2cf;" horiz-adv-x="1024" 
d="M651 -108h199l-326 -376h-153z" />
    <glyph glyph-name="uni02D0" unicode="&#x2d0;" horiz-adv-x="690" 
d="M289 729l-178 330h357zM289 330l179 -330h-357z" />
    <glyph glyph-name="uni02D1" unicode="&#x2d1;" horiz-adv-x="690" 
d="M289 729l-178 330h357z" />
    <glyph glyph-name="uni02D2" unicode="&#x2d2;" horiz-adv-x="629" 
d="M117 510v123q65 0 108 44q44 44 44 108q0 63 -44 107q-43 44 -108 44v123q116 0 195 -80q79 -78 79 -194q0 -115 -79 -195t-195 -80z" />
    <glyph glyph-name="uni02D3" unicode="&#x2d3;" horiz-adv-x="629" 
d="M391 510q-115 0 -195 80q-79 80 -79 195q0 116 79 194q80 80 195 80v-123q-64 0 -108 -44t-44 -107q0 -64 44 -108t108 -44v-123z" />
    <glyph glyph-name="uni02D4" unicode="&#x2d4;" horiz-adv-x="1024" 
d="M737 618v-150h-450v150h150v300h150v-300h150z" />
    <glyph glyph-name="uni02D5" unicode="&#x2d5;" horiz-adv-x="1024" 
d="M287 768v150h450v-150h-150v-300h-150v300h-150z" />
    <glyph glyph-name="uni02D6" unicode="&#x2d6;" horiz-adv-x="640" 
d="M260 161h-160v120h160v161h120v-161h160v-120h-160v-161h-120v161z" />
    <glyph glyph-name="uni02D7" unicode="&#x2d7;" horiz-adv-x="690" 
d="M100 153v136h490v-136h-490z" />
    <glyph glyph-name="breve" unicode="&#x2d8;" horiz-adv-x="1024" 
d="M199 1608h118q11 -75 59 -112q49 -38 136 -38q86 0 134 37t61 113h118q-10 -143 -89 -215q-78 -72 -224 -72q-145 0 -224 72t-89 215z" />
    <glyph glyph-name="dotaccent" unicode="&#x2d9;" horiz-adv-x="1024" 
d="M410 1552h204v-204h-204v204z" />
    <glyph glyph-name="ring" unicode="&#x2da;" horiz-adv-x="1024" 
d="M664 1524q0 63 -44 107q-43 44 -108 44q-64 0 -108 -43t-44 -108q0 -64 44 -108t108 -44q65 0 108 44q44 44 44 108zM786 1524q0 -115 -80 -195q-78 -80 -194 -80q-115 0 -194 80q-80 80 -80 195q0 116 80 194q79 80 194 80q116 0 194 -80q80 -78 80 -194z" />
    <glyph glyph-name="ogonek" unicode="&#x2db;" horiz-adv-x="1024" 
d="M440 0h119q-45 -61 -67 -105q-21 -43 -21 -75q0 -46 27 -69q28 -23 82 -23q32 0 63 8q31 7 62 22v-133q-37 -10 -72 -15q-34 -5 -64 -5q-121 0 -179 43q-58 44 -58 137q0 48 26 101q27 53 82 114z" />
    <glyph glyph-name="tilde" unicode="&#x2dc;" horiz-adv-x="1024" 
d="M508 1370l-57 55q-22 20 -39 29q-15 10 -29 10q-37 0 -56 -36q-18 -37 -20 -119h-125q2 135 53 209q51 73 142 73q38 0 70 -14t69 -47l57 -55q23 -20 39 -29q16 -10 29 -10q38 0 56 36q18 37 20 119h125q-2 -134 -53 -209q-50 -73 -142 -73q-37 0 -70 14q-31 14 -69 47z
" />
    <glyph glyph-name="hungarumlaut" unicode="&#x2dd;" horiz-adv-x="1024" 
d="M764 1638h178l-248 -376h-135zM430 1638h170l-223 -376h-137z" />
    <glyph glyph-name="uni02DE" unicode="&#x2de;" horiz-adv-x="646" 
d="M-1 868l278 164h184v-148q0 -153 38 -202q38 -48 143 -48h43v-156h-64q-175 0 -262 96q-82 91 -82 290l-277 -162z" />
    <glyph glyph-name="uni02DF" unicode="&#x2df;" horiz-adv-x="1024" 
d="M604 1262l-92 97l-93 -97h-180l181 187l-181 189h180l93 -96l92 96h180l-182 -189l182 -187h-180z" />
    <glyph glyph-name="uni02E0" unicode="&#x2e0;" horiz-adv-x="872" 
d="M517 988q178 -249 178 -429q0 -132 -242 -132q-267 0 -267 132q0 191 181 433l-250 303h137l191 -224l183 224h137zM441 921q-137 -174 -137 -326q0 -76 136 -77q129 0 129 77q0 137 -128 326z" />
    <glyph glyph-name="uni02E1" unicode="&#x2e1;" horiz-adv-x="340" 
d="M122 1539h116v-871h-116v871z" />
    <glyph glyph-name="uni02E2" unicode="&#x2e2;" horiz-adv-x="764" 
d="M618 1293v-97q-49 23 -102 33q-52 11 -109 11q-87 0 -130 -23q-43 -24 -43 -71q0 -36 31 -56q31 -21 124 -39l40 -8q125 -24 175 -66q52 -43 52 -120q0 -87 -78 -138q-76 -51 -213 -51q-57 0 -119 10q-61 10 -129 29v107q64 -30 127 -45q62 -15 123 -15q83 0 126 25
q44 25 44 70q0 42 -32 65q-28 20 -139 43l-40 8q-108 21 -156 62q-48 42 -48 115q0 89 71 136q70 49 200 49q65 0 121 -9q57 -8 104 -25z" />
    <glyph glyph-name="uni02E3" unicode="&#x2e3;" horiz-adv-x="909" 
d="M788 1295l-255 -305l268 -322h-137l-205 246l-205 -246h-137l274 328l-251 299h137l187 -223l187 223h137z" />
    <glyph glyph-name="uni02E4" unicode="&#x2e4;" horiz-adv-x="757" 
d="M490 1115v-447h-127v365q-107 17 -178 84q-68 65 -68 159q0 104 69 174q88 88 260 88q53 0 104 -10q51 -9 99 -29v-96q-49 24 -99 36q-49 12 -99 12q-112 0 -175 -64q-36 -36 -37 -111q0 -55 37 -97q54 -64 175 -64h39z" />
    <glyph glyph-name="uni02E5" unicode="&#x2e5;" horiz-adv-x="1010" 
d="M661 0v1232h-447v136h583v-1368h-136z" />
    <glyph glyph-name="uni02E6" unicode="&#x2e6;" horiz-adv-x="1010" 
d="M661 0v924h-447v136h447v308h136v-1368h-136z" />
    <glyph glyph-name="uni02E7" unicode="&#x2e7;" horiz-adv-x="1010" 
d="M661 0v616h-447v136h447v616h136v-1368h-136z" />
    <glyph glyph-name="uni02E8" unicode="&#x2e8;" horiz-adv-x="1010" 
d="M661 0v308h-447v136h447v924h136v-1368h-136z" />
    <glyph glyph-name="uni02E9" unicode="&#x2e9;" horiz-adv-x="1010" 
d="M661 136v1232h136v-1368h-583v136h447z" />
    <glyph glyph-name="uni02EC" unicode="&#x2ec;" horiz-adv-x="1024" 
d="M438 -532l-245 490h139l180 -359l180 359h139l-245 -490h-148z" />
    <glyph glyph-name="uni02ED" unicode="&#x2ed;" horiz-adv-x="1024" 
d="M213 1654h598v-148h-598v148zM213 1398h598v-148h-598v148z" />
    <glyph glyph-name="uni02EE" unicode="&#x2ee;" horiz-adv-x="1061" 
d="M256 1493h211v-172l-164 -320h-129l82 320v172zM666 1493h211v-172l-164 -320h-129l82 320v172z" />
    <glyph glyph-name="uni02F3" unicode="&#x2f3;" horiz-adv-x="1024" 
d="M664 -217q0 63 -44 107q-43 44 -108 44q-64 0 -108 -44q-44 -42 -44 -107q0 -64 44 -109q44 -43 108 -43q65 0 108 44q44 44 44 108zM786 -217q0 -115 -80 -195q-78 -80 -194 -80q-115 0 -194 80q-80 80 -80 195q0 116 80 195q79 79 194 79q116 0 194 -79q80 -79 80 -195
z" />
    <glyph glyph-name="uni02F7" unicode="&#x2f7;" horiz-adv-x="1024" 
d="M508 -333l-57 55q-22 20 -39 30q-15 9 -29 9q-37 0 -56 -37q-18 -36 -20 -118h-125q2 135 53 208q51 74 142 74q38 0 70 -14t69 -47l57 -55q23 -19 39 -30q16 -9 29 -9q38 0 56 37q18 36 20 118h125q-2 -135 -53 -208q-50 -74 -142 -74q-37 0 -70 14q-31 14 -69 47z" />
    <glyph glyph-name="gravecomb" unicode="&#x300;" 
d="M309 1638l282 -374h-153l-326 374h197zM120 803q15 -15 15 -35q0 -21 -15 -36q-14 -14 -35 -14t-35 14q-15 15 -15 36q0 20 15 35q14 15 35 15t35 -15zM980 803q14 -15 14 -35q0 -21 -14 -36q-15 -14 -36 -14t-36 14q-14 15 -14 36q0 20 14 35q15 15 36 15t36 -15z
M222 973q14 -15 14 -35q0 -21 -14 -36q-15 -14 -36 -14t-36 14q-14 15 -14 36q0 20 14 35q15 15 36 15t36 -15zM878 973q15 -15 15 -35q0 -21 -15 -36q-14 -14 -35 -14t-35 14q-15 15 -15 36q0 20 15 35q14 15 35 15t35 -15zM374 1085q14 -15 14 -35q0 -21 -14 -36
q-15 -14 -36 -14t-36 14q-14 15 -14 36q0 20 14 35q15 15 36 15t36 -15zM728 1085q14 -15 14 -35q0 -21 -14 -36q-15 -14 -36 -14t-36 14q-14 15 -14 36q0 20 14 35q15 15 36 15t36 -15zM550 1134q14 -15 14 -35q0 -21 -14 -35q-15 -15 -36 -15t-36 15q-14 14 -14 35
q0 20 14 35q15 15 36 15t36 -15zM50 509q-21 0 -36 15q-14 14 -14 35q0 20 14 35q15 15 36 15t36 -15q14 -15 14 -35q0 -21 -14 -35q-15 -15 -36 -15zM978 509q-21 0 -36 15q-14 14 -14 35q0 20 14 35q15 15 36 15t36 -15q14 -15 14 -35q0 -21 -14 -35q-15 -15 -36 -15z
M85 300q-21 0 -35 14q-15 15 -15 36q0 20 15 35q14 15 35 15t35 -15q15 -15 15 -35q0 -21 -15 -36q-14 -14 -35 -14zM944 300q-21 0 -36 14q-14 15 -14 36q0 20 14 35q15 15 36 15t36 -15q14 -15 14 -35q0 -21 -14 -36q-15 -14 -36 -14zM186 130q-21 0 -36 14q-14 15 -14 36
q0 20 14 35q15 15 36 15t36 -15q14 -15 14 -35q0 -21 -14 -36q-15 -14 -36 -14zM843 130q-21 0 -35 14q-15 15 -15 36q0 20 15 35q14 15 35 15t35 -15q15 -15 15 -35q0 -21 -15 -36q-14 -14 -35 -14zM338 18q-21 0 -36 14q-14 15 -14 36q0 20 14 35q15 15 36 15t36 -15
q14 -15 14 -35q0 -21 -14 -36q-15 -14 -36 -14zM692 18q-21 0 -36 14q-14 15 -14 36q0 20 14 35q15 15 36 15t36 -15q14 -15 14 -35q0 -21 -14 -36q-15 -14 -36 -14zM514 -31q-21 0 -36 15q-14 14 -14 35q0 20 14 35q15 15 36 15t36 -15q14 -15 14 -35q0 -21 -14 -35
q-15 -15 -36 -15z" />
    <glyph glyph-name="acutecomb" unicode="&#x301;" 
d="M718 1638h199l-326 -376h-153zM120 803q15 -15 15 -35q0 -21 -15 -36q-14 -14 -35 -14t-35 14q-15 15 -15 36q0 20 15 35q14 15 35 15t35 -15zM980 803q14 -15 14 -35q0 -21 -14 -36q-15 -14 -36 -14t-36 14q-14 15 -14 36q0 20 14 35q15 15 36 15t36 -15zM222 973
q14 -15 14 -35q0 -21 -14 -36q-15 -14 -36 -14t-36 14q-14 15 -14 36q0 20 14 35q15 15 36 15t36 -15zM878 973q15 -15 15 -35q0 -21 -15 -36q-14 -14 -35 -14t-35 14q-15 15 -15 36q0 20 15 35q14 15 35 15t35 -15zM374 1085q14 -15 14 -35q0 -21 -14 -36q-15 -14 -36 -14
t-36 14q-14 15 -14 36q0 20 14 35q15 15 36 15t36 -15zM728 1085q14 -15 14 -35q0 -21 -14 -36q-15 -14 -36 -14t-36 14q-14 15 -14 36q0 20 14 35q15 15 36 15t36 -15zM550 1134q14 -15 14 -35q0 -21 -14 -35q-15 -15 -36 -15t-36 15q-14 14 -14 35q0 20 14 35q15 15 36 15
t36 -15zM50 509q-21 0 -36 15q-14 14 -14 35q0 20 14 35q15 15 36 15t36 -15q14 -15 14 -35q0 -21 -14 -35q-15 -15 -36 -15zM978 509q-21 0 -36 15q-14 14 -14 35q0 20 14 35q15 15 36 15t36 -15q14 -15 14 -35q0 -21 -14 -35q-15 -15 -36 -15zM85 300q-21 0 -35 14
q-15 15 -15 36q0 20 15 35q14 15 35 15t35 -15q15 -15 15 -35q0 -21 -15 -36q-14 -14 -35 -14zM944 300q-21 0 -36 14q-14 15 -14 36q0 20 14 35q15 15 36 15t36 -15q14 -15 14 -35q0 -21 -14 -36q-15 -14 -36 -14zM186 130q-21 0 -36 14q-14 15 -14 36q0 20 14 35
q15 15 36 15t36 -15q14 -15 14 -35q0 -21 -14 -36q-15 -14 -36 -14zM843 130q-21 0 -35 14q-15 15 -15 36q0 20 15 35q14 15 35 15t35 -15q15 -15 15 -35q0 -21 -15 -36q-14 -14 -35 -14zM338 18q-21 0 -36 14q-14 15 -14 36q0 20 14 35q15 15 36 15t36 -15q14 -15 14 -35
q0 -21 -14 -36q-15 -14 -36 -14zM692 18q-21 0 -36 14q-14 15 -14 36q0 20 14 35q15 15 36 15t36 -15q14 -15 14 -35q0 -21 -14 -36q-15 -14 -36 -14zM514 -31q-21 0 -36 15q-14 14 -14 35q0 20 14 35q15 15 36 15t36 -15q14 -15 14 -35q0 -21 -14 -35q-15 -15 -36 -15z" />
    <glyph glyph-name="uni0302" unicode="&#x302;" 
d="M440 1638h148l245 -376h-139l-180 245l-180 -245h-139zM120 803q15 -15 15 -35q0 -21 -15 -36q-14 -14 -35 -14t-35 14q-15 15 -15 36q0 20 15 35q14 15 35 15t35 -15zM980 803q14 -15 14 -35q0 -21 -14 -36q-15 -14 -36 -14t-36 14q-14 15 -14 36q0 20 14 35
q15 15 36 15t36 -15zM222 973q14 -15 14 -35q0 -21 -14 -36q-15 -14 -36 -14t-36 14q-14 15 -14 36q0 20 14 35q15 15 36 15t36 -15zM878 973q15 -15 15 -35q0 -21 -15 -36q-14 -14 -35 -14t-35 14q-15 15 -15 36q0 20 15 35q14 15 35 15t35 -15zM374 1085q14 -15 14 -35
q0 -21 -14 -36q-15 -14 -36 -14t-36 14q-14 15 -14 36q0 20 14 35q15 15 36 15t36 -15zM728 1085q14 -15 14 -35q0 -21 -14 -36q-15 -14 -36 -14t-36 14q-14 15 -14 36q0 20 14 35q15 15 36 15t36 -15zM550 1134q14 -15 14 -35q0 -21 -14 -35q-15 -15 -36 -15t-36 15
q-14 14 -14 35q0 20 14 35q15 15 36 15t36 -15zM50 509q-21 0 -36 15q-14 14 -14 35q0 20 14 35q15 15 36 15t36 -15q14 -15 14 -35q0 -21 -14 -35q-15 -15 -36 -15zM978 509q-21 0 -36 15q-14 14 -14 35q0 20 14 35q15 15 36 15t36 -15q14 -15 14 -35q0 -21 -14 -35
q-15 -15 -36 -15zM85 300q-21 0 -35 14q-15 15 -15 36q0 20 15 35q14 15 35 15t35 -15q15 -15 15 -35q0 -21 -15 -36q-14 -14 -35 -14zM944 300q-21 0 -36 14q-14 15 -14 36q0 20 14 35q15 15 36 15t36 -15q14 -15 14 -35q0 -21 -14 -36q-15 -14 -36 -14zM186 130
q-21 0 -36 14q-14 15 -14 36q0 20 14 35q15 15 36 15t36 -15q14 -15 14 -35q0 -21 -14 -36q-15 -14 -36 -14zM843 130q-21 0 -35 14q-15 15 -15 36q0 20 15 35q14 15 35 15t35 -15q15 -15 15 -35q0 -21 -15 -36q-14 -14 -35 -14zM338 18q-21 0 -36 14q-14 15 -14 36
q0 20 14 35q15 15 36 15t36 -15q14 -15 14 -35q0 -21 -14 -36q-15 -14 -36 -14zM692 18q-21 0 -36 14q-14 15 -14 36q0 20 14 35q15 15 36 15t36 -15q14 -15 14 -35q0 -21 -14 -36q-15 -14 -36 -14zM514 -31q-21 0 -36 15q-14 14 -14 35q0 20 14 35q15 15 36 15t36 -15
q14 -15 14 -35q0 -21 -14 -35q-15 -15 -36 -15z" />
    <glyph glyph-name="tildecomb" unicode="&#x303;" 
d="M510 1370l-57 55q-22 20 -39 29q-15 10 -29 10q-37 0 -56 -36q-18 -37 -20 -119h-125q2 135 53 209q51 73 142 73q38 0 70 -14t69 -47l57 -55q23 -20 39 -29q16 -10 29 -10q38 0 56 36q18 37 20 119h125q-2 -134 -53 -209q-50 -73 -142 -73q-37 0 -70 14q-31 14 -69 47z
M120 803q15 -15 15 -35q0 -21 -15 -36q-14 -14 -35 -14t-35 14q-15 15 -15 36q0 20 15 35q14 15 35 15t35 -15zM980 803q14 -15 14 -35q0 -21 -14 -36q-15 -14 -36 -14t-36 14q-14 15 -14 36q0 20 14 35q15 15 36 15t36 -15zM222 973q14 -15 14 -35q0 -21 -14 -36
q-15 -14 -36 -14t-36 14q-14 15 -14 36q0 20 14 35q15 15 36 15t36 -15zM878 973q15 -15 15 -35q0 -21 -15 -36q-14 -14 -35 -14t-35 14q-15 15 -15 36q0 20 15 35q14 15 35 15t35 -15zM374 1085q14 -15 14 -35q0 -21 -14 -36q-15 -14 -36 -14t-36 14q-14 15 -14 36
q0 20 14 35q15 15 36 15t36 -15zM728 1085q14 -15 14 -35q0 -21 -14 -36q-15 -14 -36 -14t-36 14q-14 15 -14 36q0 20 14 35q15 15 36 15t36 -15zM550 1134q14 -15 14 -35q0 -21 -14 -35q-15 -15 -36 -15t-36 15q-14 14 -14 35q0 20 14 35q15 15 36 15t36 -15zM50 509
q-21 0 -36 15q-14 14 -14 35q0 20 14 35q15 15 36 15t36 -15q14 -15 14 -35q0 -21 -14 -35q-15 -15 -36 -15zM978 509q-21 0 -36 15q-14 14 -14 35q0 20 14 35q15 15 36 15t36 -15q14 -15 14 -35q0 -21 -14 -35q-15 -15 -36 -15zM85 300q-21 0 -35 14q-15 15 -15 36
q0 20 15 35q14 15 35 15t35 -15q15 -15 15 -35q0 -21 -15 -36q-14 -14 -35 -14zM944 300q-21 0 -36 14q-14 15 -14 36q0 20 14 35q15 15 36 15t36 -15q14 -15 14 -35q0 -21 -14 -36q-15 -14 -36 -14zM186 130q-21 0 -36 14q-14 15 -14 36q0 20 14 35q15 15 36 15t36 -15
q14 -15 14 -35q0 -21 -14 -36q-15 -14 -36 -14zM843 130q-21 0 -35 14q-15 15 -15 36q0 20 15 35q14 15 35 15t35 -15q15 -15 15 -35q0 -21 -15 -36q-14 -14 -35 -14zM338 18q-21 0 -36 14q-14 15 -14 36q0 20 14 35q15 15 36 15t36 -15q14 -15 14 -35q0 -21 -14 -36
q-15 -14 -36 -14zM692 18q-21 0 -36 14q-14 15 -14 36q0 20 14 35q15 15 36 15t36 -15q14 -15 14 -35q0 -21 -14 -36q-15 -14 -36 -14zM514 -31q-21 0 -36 15q-14 14 -14 35q0 20 14 35q15 15 36 15t36 -15q14 -15 14 -35q0 -21 -14 -35q-15 -15 -36 -15z" />
    <glyph glyph-name="uni0304" unicode="&#x304;" 
d="M215 1526h598v-148h-598v148zM120 803q15 -15 15 -35q0 -21 -15 -36q-14 -14 -35 -14t-35 14q-15 15 -15 36q0 20 15 35q14 15 35 15t35 -15zM980 803q14 -15 14 -35q0 -21 -14 -36q-15 -14 -36 -14t-36 14q-14 15 -14 36q0 20 14 35q15 15 36 15t36 -15zM222 973
q14 -15 14 -35q0 -21 -14 -36q-15 -14 -36 -14t-36 14q-14 15 -14 36q0 20 14 35q15 15 36 15t36 -15zM878 973q15 -15 15 -35q0 -21 -15 -36q-14 -14 -35 -14t-35 14q-15 15 -15 36q0 20 15 35q14 15 35 15t35 -15zM374 1085q14 -15 14 -35q0 -21 -14 -36q-15 -14 -36 -14
t-36 14q-14 15 -14 36q0 20 14 35q15 15 36 15t36 -15zM728 1085q14 -15 14 -35q0 -21 -14 -36q-15 -14 -36 -14t-36 14q-14 15 -14 36q0 20 14 35q15 15 36 15t36 -15zM550 1134q14 -15 14 -35q0 -21 -14 -35q-15 -15 -36 -15t-36 15q-14 14 -14 35q0 20 14 35q15 15 36 15
t36 -15zM50 509q-21 0 -36 15q-14 14 -14 35q0 20 14 35q15 15 36 15t36 -15q14 -15 14 -35q0 -21 -14 -35q-15 -15 -36 -15zM978 509q-21 0 -36 15q-14 14 -14 35q0 20 14 35q15 15 36 15t36 -15q14 -15 14 -35q0 -21 -14 -35q-15 -15 -36 -15zM85 300q-21 0 -35 14
q-15 15 -15 36q0 20 15 35q14 15 35 15t35 -15q15 -15 15 -35q0 -21 -15 -36q-14 -14 -35 -14zM944 300q-21 0 -36 14q-14 15 -14 36q0 20 14 35q15 15 36 15t36 -15q14 -15 14 -35q0 -21 -14 -36q-15 -14 -36 -14zM186 130q-21 0 -36 14q-14 15 -14 36q0 20 14 35
q15 15 36 15t36 -15q14 -15 14 -35q0 -21 -14 -36q-15 -14 -36 -14zM843 130q-21 0 -35 14q-15 15 -15 36q0 20 15 35q14 15 35 15t35 -15q15 -15 15 -35q0 -21 -15 -36q-14 -14 -35 -14zM338 18q-21 0 -36 14q-14 15 -14 36q0 20 14 35q15 15 36 15t36 -15q14 -15 14 -35
q0 -21 -14 -36q-15 -14 -36 -14zM692 18q-21 0 -36 14q-14 15 -14 36q0 20 14 35q15 15 36 15t36 -15q14 -15 14 -35q0 -21 -14 -36q-15 -14 -36 -14zM514 -31q-21 0 -36 15q-14 14 -14 35q0 20 14 35q15 15 36 15t36 -15q14 -15 14 -35q0 -21 -14 -35q-15 -15 -36 -15z" />
    <glyph glyph-name="uni0305" unicode="&#x305;" 
d="M1046 1547v-143h-1064v143h1064zM120 803q15 -15 15 -35q0 -21 -15 -36q-14 -14 -35 -14t-35 14q-15 15 -15 36q0 20 15 35q14 15 35 15t35 -15zM980 803q14 -15 14 -35q0 -21 -14 -36q-15 -14 -36 -14t-36 14q-14 15 -14 36q0 20 14 35q15 15 36 15t36 -15zM222 973
q14 -15 14 -35q0 -21 -14 -36q-15 -14 -36 -14t-36 14q-14 15 -14 36q0 20 14 35q15 15 36 15t36 -15zM878 973q15 -15 15 -35q0 -21 -15 -36q-14 -14 -35 -14t-35 14q-15 15 -15 36q0 20 15 35q14 15 35 15t35 -15zM374 1085q14 -15 14 -35q0 -21 -14 -36q-15 -14 -36 -14
t-36 14q-14 15 -14 36q0 20 14 35q15 15 36 15t36 -15zM728 1085q14 -15 14 -35q0 -21 -14 -36q-15 -14 -36 -14t-36 14q-14 15 -14 36q0 20 14 35q15 15 36 15t36 -15zM550 1134q14 -15 14 -35q0 -21 -14 -35q-15 -15 -36 -15t-36 15q-14 14 -14 35q0 20 14 35q15 15 36 15
t36 -15zM50 509q-21 0 -36 15q-14 14 -14 35q0 20 14 35q15 15 36 15t36 -15q14 -15 14 -35q0 -21 -14 -35q-15 -15 -36 -15zM978 509q-21 0 -36 15q-14 14 -14 35q0 20 14 35q15 15 36 15t36 -15q14 -15 14 -35q0 -21 -14 -35q-15 -15 -36 -15zM85 300q-21 0 -35 14
q-15 15 -15 36q0 20 15 35q14 15 35 15t35 -15q15 -15 15 -35q0 -21 -15 -36q-14 -14 -35 -14zM944 300q-21 0 -36 14q-14 15 -14 36q0 20 14 35q15 15 36 15t36 -15q14 -15 14 -35q0 -21 -14 -36q-15 -14 -36 -14zM186 130q-21 0 -36 14q-14 15 -14 36q0 20 14 35
q15 15 36 15t36 -15q14 -15 14 -35q0 -21 -14 -36q-15 -14 -36 -14zM843 130q-21 0 -35 14q-15 15 -15 36q0 20 15 35q14 15 35 15t35 -15q15 -15 15 -35q0 -21 -15 -36q-14 -14 -35 -14zM338 18q-21 0 -36 14q-14 15 -14 36q0 20 14 35q15 15 36 15t36 -15q14 -15 14 -35
q0 -21 -14 -36q-15 -14 -36 -14zM692 18q-21 0 -36 14q-14 15 -14 36q0 20 14 35q15 15 36 15t36 -15q14 -15 14 -35q0 -21 -14 -36q-15 -14 -36 -14zM514 -31q-21 0 -36 15q-14 14 -14 35q0 20 14 35q15 15 36 15t36 -15q14 -15 14 -35q0 -21 -14 -35q-15 -15 -36 -15z" />
    <glyph glyph-name="uni0306" unicode="&#x306;" 
d="M201 1608h118q11 -75 59 -112q49 -38 136 -38q86 0 134 37t61 113h118q-10 -143 -89 -215q-78 -72 -224 -72q-145 0 -224 72t-89 215zM120 803q15 -15 15 -35q0 -21 -15 -36q-14 -14 -35 -14t-35 14q-15 15 -15 36q0 20 15 35q14 15 35 15t35 -15zM980 803q14 -15 14 -35
q0 -21 -14 -36q-15 -14 -36 -14t-36 14q-14 15 -14 36q0 20 14 35q15 15 36 15t36 -15zM222 973q14 -15 14 -35q0 -21 -14 -36q-15 -14 -36 -14t-36 14q-14 15 -14 36q0 20 14 35q15 15 36 15t36 -15zM878 973q15 -15 15 -35q0 -21 -15 -36q-14 -14 -35 -14t-35 14
q-15 15 -15 36q0 20 15 35q14 15 35 15t35 -15zM374 1085q14 -15 14 -35q0 -21 -14 -36q-15 -14 -36 -14t-36 14q-14 15 -14 36q0 20 14 35q15 15 36 15t36 -15zM728 1085q14 -15 14 -35q0 -21 -14 -36q-15 -14 -36 -14t-36 14q-14 15 -14 36q0 20 14 35q15 15 36 15t36 -15
zM550 1134q14 -15 14 -35q0 -21 -14 -35q-15 -15 -36 -15t-36 15q-14 14 -14 35q0 20 14 35q15 15 36 15t36 -15zM50 509q-21 0 -36 15q-14 14 -14 35q0 20 14 35q15 15 36 15t36 -15q14 -15 14 -35q0 -21 -14 -35q-15 -15 -36 -15zM978 509q-21 0 -36 15q-14 14 -14 35
q0 20 14 35q15 15 36 15t36 -15q14 -15 14 -35q0 -21 -14 -35q-15 -15 -36 -15zM85 300q-21 0 -35 14q-15 15 -15 36q0 20 15 35q14 15 35 15t35 -15q15 -15 15 -35q0 -21 -15 -36q-14 -14 -35 -14zM944 300q-21 0 -36 14q-14 15 -14 36q0 20 14 35q15 15 36 15t36 -15
q14 -15 14 -35q0 -21 -14 -36q-15 -14 -36 -14zM186 130q-21 0 -36 14q-14 15 -14 36q0 20 14 35q15 15 36 15t36 -15q14 -15 14 -35q0 -21 -14 -36q-15 -14 -36 -14zM843 130q-21 0 -35 14q-15 15 -15 36q0 20 15 35q14 15 35 15t35 -15q15 -15 15 -35q0 -21 -15 -36
q-14 -14 -35 -14zM338 18q-21 0 -36 14q-14 15 -14 36q0 20 14 35q15 15 36 15t36 -15q14 -15 14 -35q0 -21 -14 -36q-15 -14 -36 -14zM692 18q-21 0 -36 14q-14 15 -14 36q0 20 14 35q15 15 36 15t36 -15q14 -15 14 -35q0 -21 -14 -36q-15 -14 -36 -14zM514 -31
q-21 0 -36 15q-14 14 -14 35q0 20 14 35q15 15 36 15t36 -15q14 -15 14 -35q0 -21 -14 -35q-15 -15 -36 -15z" />
    <glyph glyph-name="uni0307" unicode="&#x307;" 
d="M422 1556h184v-233h-184v233zM120 803q15 -15 15 -35q0 -21 -15 -36q-14 -14 -35 -14t-35 14q-15 15 -15 36q0 20 15 35q14 15 35 15t35 -15zM980 803q14 -15 14 -35q0 -21 -14 -36q-15 -14 -36 -14t-36 14q-14 15 -14 36q0 20 14 35q15 15 36 15t36 -15zM222 973
q14 -15 14 -35q0 -21 -14 -36q-15 -14 -36 -14t-36 14q-14 15 -14 36q0 20 14 35q15 15 36 15t36 -15zM878 973q15 -15 15 -35q0 -21 -15 -36q-14 -14 -35 -14t-35 14q-15 15 -15 36q0 20 15 35q14 15 35 15t35 -15zM374 1085q14 -15 14 -35q0 -21 -14 -36q-15 -14 -36 -14
t-36 14q-14 15 -14 36q0 20 14 35q15 15 36 15t36 -15zM728 1085q14 -15 14 -35q0 -21 -14 -36q-15 -14 -36 -14t-36 14q-14 15 -14 36q0 20 14 35q15 15 36 15t36 -15zM550 1134q14 -15 14 -35q0 -21 -14 -35q-15 -15 -36 -15t-36 15q-14 14 -14 35q0 20 14 35q15 15 36 15
t36 -15zM50 509q-21 0 -36 15q-14 14 -14 35q0 20 14 35q15 15 36 15t36 -15q14 -15 14 -35q0 -21 -14 -35q-15 -15 -36 -15zM978 509q-21 0 -36 15q-14 14 -14 35q0 20 14 35q15 15 36 15t36 -15q14 -15 14 -35q0 -21 -14 -35q-15 -15 -36 -15zM85 300q-21 0 -35 14
q-15 15 -15 36q0 20 15 35q14 15 35 15t35 -15q15 -15 15 -35q0 -21 -15 -36q-14 -14 -35 -14zM944 300q-21 0 -36 14q-14 15 -14 36q0 20 14 35q15 15 36 15t36 -15q14 -15 14 -35q0 -21 -14 -36q-15 -14 -36 -14zM186 130q-21 0 -36 14q-14 15 -14 36q0 20 14 35
q15 15 36 15t36 -15q14 -15 14 -35q0 -21 -14 -36q-15 -14 -36 -14zM843 130q-21 0 -35 14q-15 15 -15 36q0 20 15 35q14 15 35 15t35 -15q15 -15 15 -35q0 -21 -15 -36q-14 -14 -35 -14zM338 18q-21 0 -36 14q-14 15 -14 36q0 20 14 35q15 15 36 15t36 -15q14 -15 14 -35
q0 -21 -14 -36q-15 -14 -36 -14zM692 18q-21 0 -36 14q-14 15 -14 36q0 20 14 35q15 15 36 15t36 -15q14 -15 14 -35q0 -21 -14 -36q-15 -14 -36 -14zM514 -31q-21 0 -36 15q-14 14 -14 35q0 20 14 35q15 15 36 15t36 -15q14 -15 14 -35q0 -21 -14 -35q-15 -15 -36 -15z" />
    <glyph glyph-name="uni0308" unicode="&#x308;" 
d="M608 1552h203v-202h-203v202zM217 1552h203v-202h-203v202zM120 803q15 -15 15 -35q0 -21 -15 -36q-14 -14 -35 -14t-35 14q-15 15 -15 36q0 20 15 35q14 15 35 15t35 -15zM980 803q14 -15 14 -35q0 -21 -14 -36q-15 -14 -36 -14t-36 14q-14 15 -14 36q0 20 14 35
q15 15 36 15t36 -15zM222 973q14 -15 14 -35q0 -21 -14 -36q-15 -14 -36 -14t-36 14q-14 15 -14 36q0 20 14 35q15 15 36 15t36 -15zM878 973q15 -15 15 -35q0 -21 -15 -36q-14 -14 -35 -14t-35 14q-15 15 -15 36q0 20 15 35q14 15 35 15t35 -15zM374 1085q14 -15 14 -35
q0 -21 -14 -36q-15 -14 -36 -14t-36 14q-14 15 -14 36q0 20 14 35q15 15 36 15t36 -15zM728 1085q14 -15 14 -35q0 -21 -14 -36q-15 -14 -36 -14t-36 14q-14 15 -14 36q0 20 14 35q15 15 36 15t36 -15zM550 1134q14 -15 14 -35q0 -21 -14 -35q-15 -15 -36 -15t-36 15
q-14 14 -14 35q0 20 14 35q15 15 36 15t36 -15zM50 509q-21 0 -36 15q-14 14 -14 35q0 20 14 35q15 15 36 15t36 -15q14 -15 14 -35q0 -21 -14 -35q-15 -15 -36 -15zM978 509q-21 0 -36 15q-14 14 -14 35q0 20 14 35q15 15 36 15t36 -15q14 -15 14 -35q0 -21 -14 -35
q-15 -15 -36 -15zM85 300q-21 0 -35 14q-15 15 -15 36q0 20 15 35q14 15 35 15t35 -15q15 -15 15 -35q0 -21 -15 -36q-14 -14 -35 -14zM944 300q-21 0 -36 14q-14 15 -14 36q0 20 14 35q15 15 36 15t36 -15q14 -15 14 -35q0 -21 -14 -36q-15 -14 -36 -14zM186 130
q-21 0 -36 14q-14 15 -14 36q0 20 14 35q15 15 36 15t36 -15q14 -15 14 -35q0 -21 -14 -36q-15 -14 -36 -14zM843 130q-21 0 -35 14q-15 15 -15 36q0 20 15 35q14 15 35 15t35 -15q15 -15 15 -35q0 -21 -15 -36q-14 -14 -35 -14zM338 18q-21 0 -36 14q-14 15 -14 36
q0 20 14 35q15 15 36 15t36 -15q14 -15 14 -35q0 -21 -14 -36q-15 -14 -36 -14zM692 18q-21 0 -36 14q-14 15 -14 36q0 20 14 35q15 15 36 15t36 -15q14 -15 14 -35q0 -21 -14 -36q-15 -14 -36 -14zM514 -31q-21 0 -36 15q-14 14 -14 35q0 20 14 35q15 15 36 15t36 -15
q14 -15 14 -35q0 -21 -14 -35q-15 -15 -36 -15z" />
    <glyph glyph-name="hookabovecomb" unicode="&#x309;" 
d="M304 1608q112 51 217 51q104 0 167 -43q64 -41 64 -109q0 -61 -88 -126l-44 -32q-34 -26 -39 -35q-7 -16 -7 -48h-119v12q0 41 15 67q15 27 66 64l45 34q46 34 46 74q0 21 -31 39t-102 18q-90 0 -190 -52v86zM120 803q15 -15 15 -35q0 -21 -15 -36q-14 -14 -35 -14
t-35 14q-15 15 -15 36q0 20 15 35q14 15 35 15t35 -15zM980 803q14 -15 14 -35q0 -21 -14 -36q-15 -14 -36 -14t-36 14q-14 15 -14 36q0 20 14 35q15 15 36 15t36 -15zM222 973q14 -15 14 -35q0 -21 -14 -36q-15 -14 -36 -14t-36 14q-14 15 -14 36q0 20 14 35q15 15 36 15
t36 -15zM878 973q15 -15 15 -35q0 -21 -15 -36q-14 -14 -35 -14t-35 14q-15 15 -15 36q0 20 15 35q14 15 35 15t35 -15zM374 1085q14 -15 14 -35q0 -21 -14 -36q-15 -14 -36 -14t-36 14q-14 15 -14 36q0 20 14 35q15 15 36 15t36 -15zM728 1085q14 -15 14 -35q0 -21 -14 -36
q-15 -14 -36 -14t-36 14q-14 15 -14 36q0 20 14 35q15 15 36 15t36 -15zM550 1134q14 -15 14 -35q0 -21 -14 -35q-15 -15 -36 -15t-36 15q-14 14 -14 35q0 20 14 35q15 15 36 15t36 -15zM50 509q-21 0 -36 15q-14 14 -14 35q0 20 14 35q15 15 36 15t36 -15q14 -15 14 -35
q0 -21 -14 -35q-15 -15 -36 -15zM978 509q-21 0 -36 15q-14 14 -14 35q0 20 14 35q15 15 36 15t36 -15q14 -15 14 -35q0 -21 -14 -35q-15 -15 -36 -15zM85 300q-21 0 -35 14q-15 15 -15 36q0 20 15 35q14 15 35 15t35 -15q15 -15 15 -35q0 -21 -15 -36q-14 -14 -35 -14z
M944 300q-21 0 -36 14q-14 15 -14 36q0 20 14 35q15 15 36 15t36 -15q14 -15 14 -35q0 -21 -14 -36q-15 -14 -36 -14zM186 130q-21 0 -36 14q-14 15 -14 36q0 20 14 35q15 15 36 15t36 -15q14 -15 14 -35q0 -21 -14 -36q-15 -14 -36 -14zM843 130q-21 0 -35 14
q-15 15 -15 36q0 20 15 35q14 15 35 15t35 -15q15 -15 15 -35q0 -21 -15 -36q-14 -14 -35 -14zM338 18q-21 0 -36 14q-14 15 -14 36q0 20 14 35q15 15 36 15t36 -15q14 -15 14 -35q0 -21 -14 -36q-15 -14 -36 -14zM692 18q-21 0 -36 14q-14 15 -14 36q0 20 14 35
q15 15 36 15t36 -15q14 -15 14 -35q0 -21 -14 -36q-15 -14 -36 -14zM514 -31q-21 0 -36 15q-14 14 -14 35q0 20 14 35q15 15 36 15t36 -15q14 -15 14 -35q0 -21 -14 -35q-15 -15 -36 -15z" />
    <glyph glyph-name="uni030A" unicode="&#x30a;" 
d="M120 803q15 -15 15 -35q0 -21 -15 -36q-14 -14 -35 -14t-35 14q-15 15 -15 36q0 20 15 35q14 15 35 15t35 -15zM980 803q14 -15 14 -35q0 -21 -14 -36q-15 -14 -36 -14t-36 14q-14 15 -14 36q0 20 14 35q15 15 36 15t36 -15zM222 973q14 -15 14 -35q0 -21 -14 -36
q-15 -14 -36 -14t-36 14q-14 15 -14 36q0 20 14 35q15 15 36 15t36 -15zM878 973q15 -15 15 -35q0 -21 -15 -36q-14 -14 -35 -14t-35 14q-15 15 -15 36q0 20 15 35q14 15 35 15t35 -15zM374 1085q14 -15 14 -35q0 -21 -14 -36q-15 -14 -36 -14t-36 14q-14 15 -14 36
q0 20 14 35q15 15 36 15t36 -15zM728 1085q14 -15 14 -35q0 -21 -14 -36q-15 -14 -36 -14t-36 14q-14 15 -14 36q0 20 14 35q15 15 36 15t36 -15zM550 1134q14 -15 14 -35q0 -21 -14 -35q-15 -15 -36 -15t-36 15q-14 14 -14 35q0 20 14 35q15 15 36 15t36 -15zM50 509
q-21 0 -36 15q-14 14 -14 35q0 20 14 35q15 15 36 15t36 -15q14 -15 14 -35q0 -21 -14 -35q-15 -15 -36 -15zM978 509q-21 0 -36 15q-14 14 -14 35q0 20 14 35q15 15 36 15t36 -15q14 -15 14 -35q0 -21 -14 -35q-15 -15 -36 -15zM85 300q-21 0 -35 14q-15 15 -15 36
q0 20 15 35q14 15 35 15t35 -15q15 -15 15 -35q0 -21 -15 -36q-14 -14 -35 -14zM944 300q-21 0 -36 14q-14 15 -14 36q0 20 14 35q15 15 36 15t36 -15q14 -15 14 -35q0 -21 -14 -36q-15 -14 -36 -14zM186 130q-21 0 -36 14q-14 15 -14 36q0 20 14 35q15 15 36 15t36 -15
q14 -15 14 -35q0 -21 -14 -36q-15 -14 -36 -14zM843 130q-21 0 -35 14q-15 15 -15 36q0 20 15 35q14 15 35 15t35 -15q15 -15 15 -35q0 -21 -15 -36q-14 -14 -35 -14zM338 18q-21 0 -36 14q-14 15 -14 36q0 20 14 35q15 15 36 15t36 -15q14 -15 14 -35q0 -21 -14 -36
q-15 -14 -36 -14zM692 18q-21 0 -36 14q-14 15 -14 36q0 20 14 35q15 15 36 15t36 -15q14 -15 14 -35q0 -21 -14 -36q-15 -14 -36 -14zM514 -31q-21 0 -36 15q-14 14 -14 35q0 20 14 35q15 15 36 15t36 -15q14 -15 14 -35q0 -21 -14 -35q-15 -15 -36 -15zM607 1465
q0 38 -27 65t-66 27q-40 0 -66 -26q-27 -27 -27 -66q0 -40 27 -66q26 -27 66 -27q39 0 66 27t27 66zM728 1464q0 -90 -62 -153q-62 -62 -152 -62t-152 62q-62 63 -62 153q0 89 62 151t152 62t152 -62t62 -151z" />
    <glyph glyph-name="uni030B" unicode="&#x30b;" 
d="M811 1638h178l-248 -376h-135zM477 1638h170l-223 -376h-137zM120 803q15 -15 15 -35q0 -21 -15 -36q-14 -14 -35 -14t-35 14q-15 15 -15 36q0 20 15 35q14 15 35 15t35 -15zM980 803q14 -15 14 -35q0 -21 -14 -36q-15 -14 -36 -14t-36 14q-14 15 -14 36q0 20 14 35
q15 15 36 15t36 -15zM222 973q14 -15 14 -35q0 -21 -14 -36q-15 -14 -36 -14t-36 14q-14 15 -14 36q0 20 14 35q15 15 36 15t36 -15zM878 973q15 -15 15 -35q0 -21 -15 -36q-14 -14 -35 -14t-35 14q-15 15 -15 36q0 20 15 35q14 15 35 15t35 -15zM374 1085q14 -15 14 -35
q0 -21 -14 -36q-15 -14 -36 -14t-36 14q-14 15 -14 36q0 20 14 35q15 15 36 15t36 -15zM728 1085q14 -15 14 -35q0 -21 -14 -36q-15 -14 -36 -14t-36 14q-14 15 -14 36q0 20 14 35q15 15 36 15t36 -15zM550 1134q14 -15 14 -35q0 -21 -14 -35q-15 -15 -36 -15t-36 15
q-14 14 -14 35q0 20 14 35q15 15 36 15t36 -15zM50 509q-21 0 -36 15q-14 14 -14 35q0 20 14 35q15 15 36 15t36 -15q14 -15 14 -35q0 -21 -14 -35q-15 -15 -36 -15zM978 509q-21 0 -36 15q-14 14 -14 35q0 20 14 35q15 15 36 15t36 -15q14 -15 14 -35q0 -21 -14 -35
q-15 -15 -36 -15zM85 300q-21 0 -35 14q-15 15 -15 36q0 20 15 35q14 15 35 15t35 -15q15 -15 15 -35q0 -21 -15 -36q-14 -14 -35 -14zM944 300q-21 0 -36 14q-14 15 -14 36q0 20 14 35q15 15 36 15t36 -15q14 -15 14 -35q0 -21 -14 -36q-15 -14 -36 -14zM186 130
q-21 0 -36 14q-14 15 -14 36q0 20 14 35q15 15 36 15t36 -15q14 -15 14 -35q0 -21 -14 -36q-15 -14 -36 -14zM843 130q-21 0 -35 14q-15 15 -15 36q0 20 15 35q14 15 35 15t35 -15q15 -15 15 -35q0 -21 -15 -36q-14 -14 -35 -14zM338 18q-21 0 -36 14q-14 15 -14 36
q0 20 14 35q15 15 36 15t36 -15q14 -15 14 -35q0 -21 -14 -36q-15 -14 -36 -14zM692 18q-21 0 -36 14q-14 15 -14 36q0 20 14 35q15 15 36 15t36 -15q14 -15 14 -35q0 -21 -14 -36q-15 -14 -36 -14zM514 -31q-21 0 -36 15q-14 14 -14 35q0 20 14 35q15 15 36 15t36 -15
q14 -15 14 -35q0 -21 -14 -35q-15 -15 -36 -15z" />
    <glyph glyph-name="uni030C" unicode="&#x30c;" 
d="M440 1262l-245 376h139l180 -245l180 245h139l-245 -376h-148zM120 803q15 -15 15 -35q0 -21 -15 -36q-14 -14 -35 -14t-35 14q-15 15 -15 36q0 20 15 35q14 15 35 15t35 -15zM980 803q14 -15 14 -35q0 -21 -14 -36q-15 -14 -36 -14t-36 14q-14 15 -14 36q0 20 14 35
q15 15 36 15t36 -15zM222 973q14 -15 14 -35q0 -21 -14 -36q-15 -14 -36 -14t-36 14q-14 15 -14 36q0 20 14 35q15 15 36 15t36 -15zM878 973q15 -15 15 -35q0 -21 -15 -36q-14 -14 -35 -14t-35 14q-15 15 -15 36q0 20 15 35q14 15 35 15t35 -15zM374 1085q14 -15 14 -35
q0 -21 -14 -36q-15 -14 -36 -14t-36 14q-14 15 -14 36q0 20 14 35q15 15 36 15t36 -15zM728 1085q14 -15 14 -35q0 -21 -14 -36q-15 -14 -36 -14t-36 14q-14 15 -14 36q0 20 14 35q15 15 36 15t36 -15zM550 1134q14 -15 14 -35q0 -21 -14 -35q-15 -15 -36 -15t-36 15
q-14 14 -14 35q0 20 14 35q15 15 36 15t36 -15zM50 509q-21 0 -36 15q-14 14 -14 35q0 20 14 35q15 15 36 15t36 -15q14 -15 14 -35q0 -21 -14 -35q-15 -15 -36 -15zM978 509q-21 0 -36 15q-14 14 -14 35q0 20 14 35q15 15 36 15t36 -15q14 -15 14 -35q0 -21 -14 -35
q-15 -15 -36 -15zM85 300q-21 0 -35 14q-15 15 -15 36q0 20 15 35q14 15 35 15t35 -15q15 -15 15 -35q0 -21 -15 -36q-14 -14 -35 -14zM944 300q-21 0 -36 14q-14 15 -14 36q0 20 14 35q15 15 36 15t36 -15q14 -15 14 -35q0 -21 -14 -36q-15 -14 -36 -14zM186 130
q-21 0 -36 14q-14 15 -14 36q0 20 14 35q15 15 36 15t36 -15q14 -15 14 -35q0 -21 -14 -36q-15 -14 -36 -14zM843 130q-21 0 -35 14q-15 15 -15 36q0 20 15 35q14 15 35 15t35 -15q15 -15 15 -35q0 -21 -15 -36q-14 -14 -35 -14zM338 18q-21 0 -36 14q-14 15 -14 36
q0 20 14 35q15 15 36 15t36 -15q14 -15 14 -35q0 -21 -14 -36q-15 -14 -36 -14zM692 18q-21 0 -36 14q-14 15 -14 36q0 20 14 35q15 15 36 15t36 -15q14 -15 14 -35q0 -21 -14 -36q-15 -14 -36 -14zM514 -31q-21 0 -36 15q-14 14 -14 35q0 20 14 35q15 15 36 15t36 -15
q14 -15 14 -35q0 -21 -14 -35q-15 -15 -36 -15z" />
    <glyph glyph-name="uni030D" unicode="&#x30d;" 
d="M582 1704v-444h-136v444h136zM120 803q15 -15 15 -35q0 -21 -15 -36q-14 -14 -35 -14t-35 14q-15 15 -15 36q0 20 15 35q14 15 35 15t35 -15zM980 803q14 -15 14 -35q0 -21 -14 -36q-15 -14 -36 -14t-36 14q-14 15 -14 36q0 20 14 35q15 15 36 15t36 -15zM222 973
q14 -15 14 -35q0 -21 -14 -36q-15 -14 -36 -14t-36 14q-14 15 -14 36q0 20 14 35q15 15 36 15t36 -15zM878 973q15 -15 15 -35q0 -21 -15 -36q-14 -14 -35 -14t-35 14q-15 15 -15 36q0 20 15 35q14 15 35 15t35 -15zM374 1085q14 -15 14 -35q0 -21 -14 -36q-15 -14 -36 -14
t-36 14q-14 15 -14 36q0 20 14 35q15 15 36 15t36 -15zM728 1085q14 -15 14 -35q0 -21 -14 -36q-15 -14 -36 -14t-36 14q-14 15 -14 36q0 20 14 35q15 15 36 15t36 -15zM550 1134q14 -15 14 -35q0 -21 -14 -35q-15 -15 -36 -15t-36 15q-14 14 -14 35q0 20 14 35q15 15 36 15
t36 -15zM50 509q-21 0 -36 15q-14 14 -14 35q0 20 14 35q15 15 36 15t36 -15q14 -15 14 -35q0 -21 -14 -35q-15 -15 -36 -15zM978 509q-21 0 -36 15q-14 14 -14 35q0 20 14 35q15 15 36 15t36 -15q14 -15 14 -35q0 -21 -14 -35q-15 -15 -36 -15zM85 300q-21 0 -35 14
q-15 15 -15 36q0 20 15 35q14 15 35 15t35 -15q15 -15 15 -35q0 -21 -15 -36q-14 -14 -35 -14zM944 300q-21 0 -36 14q-14 15 -14 36q0 20 14 35q15 15 36 15t36 -15q14 -15 14 -35q0 -21 -14 -36q-15 -14 -36 -14zM186 130q-21 0 -36 14q-14 15 -14 36q0 20 14 35
q15 15 36 15t36 -15q14 -15 14 -35q0 -21 -14 -36q-15 -14 -36 -14zM843 130q-21 0 -35 14q-15 15 -15 36q0 20 15 35q14 15 35 15t35 -15q15 -15 15 -35q0 -21 -15 -36q-14 -14 -35 -14zM338 18q-21 0 -36 14q-14 15 -14 36q0 20 14 35q15 15 36 15t36 -15q14 -15 14 -35
q0 -21 -14 -36q-15 -14 -36 -14zM692 18q-21 0 -36 14q-14 15 -14 36q0 20 14 35q15 15 36 15t36 -15q14 -15 14 -35q0 -21 -14 -36q-15 -14 -36 -14zM514 -31q-21 0 -36 15q-14 14 -14 35q0 20 14 35q15 15 36 15t36 -15q14 -15 14 -35q0 -21 -14 -35q-15 -15 -36 -15z" />
    <glyph glyph-name="uni030E" unicode="&#x30e;" 
d="M378 1704v-444h-136v444h136zM786 1704v-444h-136v444h136zM120 803q15 -15 15 -35q0 -21 -15 -36q-14 -14 -35 -14t-35 14q-15 15 -15 36q0 20 15 35q14 15 35 15t35 -15zM980 803q14 -15 14 -35q0 -21 -14 -36q-15 -14 -36 -14t-36 14q-14 15 -14 36q0 20 14 35
q15 15 36 15t36 -15zM222 973q14 -15 14 -35q0 -21 -14 -36q-15 -14 -36 -14t-36 14q-14 15 -14 36q0 20 14 35q15 15 36 15t36 -15zM878 973q15 -15 15 -35q0 -21 -15 -36q-14 -14 -35 -14t-35 14q-15 15 -15 36q0 20 15 35q14 15 35 15t35 -15zM374 1085q14 -15 14 -35
q0 -21 -14 -36q-15 -14 -36 -14t-36 14q-14 15 -14 36q0 20 14 35q15 15 36 15t36 -15zM728 1085q14 -15 14 -35q0 -21 -14 -36q-15 -14 -36 -14t-36 14q-14 15 -14 36q0 20 14 35q15 15 36 15t36 -15zM550 1134q14 -15 14 -35q0 -21 -14 -35q-15 -15 -36 -15t-36 15
q-14 14 -14 35q0 20 14 35q15 15 36 15t36 -15zM50 509q-21 0 -36 15q-14 14 -14 35q0 20 14 35q15 15 36 15t36 -15q14 -15 14 -35q0 -21 -14 -35q-15 -15 -36 -15zM978 509q-21 0 -36 15q-14 14 -14 35q0 20 14 35q15 15 36 15t36 -15q14 -15 14 -35q0 -21 -14 -35
q-15 -15 -36 -15zM85 300q-21 0 -35 14q-15 15 -15 36q0 20 15 35q14 15 35 15t35 -15q15 -15 15 -35q0 -21 -15 -36q-14 -14 -35 -14zM944 300q-21 0 -36 14q-14 15 -14 36q0 20 14 35q15 15 36 15t36 -15q14 -15 14 -35q0 -21 -14 -36q-15 -14 -36 -14zM186 130
q-21 0 -36 14q-14 15 -14 36q0 20 14 35q15 15 36 15t36 -15q14 -15 14 -35q0 -21 -14 -36q-15 -14 -36 -14zM843 130q-21 0 -35 14q-15 15 -15 36q0 20 15 35q14 15 35 15t35 -15q15 -15 15 -35q0 -21 -15 -36q-14 -14 -35 -14zM338 18q-21 0 -36 14q-14 15 -14 36
q0 20 14 35q15 15 36 15t36 -15q14 -15 14 -35q0 -21 -14 -36q-15 -14 -36 -14zM692 18q-21 0 -36 14q-14 15 -14 36q0 20 14 35q15 15 36 15t36 -15q14 -15 14 -35q0 -21 -14 -36q-15 -14 -36 -14zM514 -31q-21 0 -36 15q-14 14 -14 35q0 20 14 35q15 15 36 15t36 -15
q14 -15 14 -35q0 -21 -14 -35q-15 -15 -36 -15z" />
    <glyph glyph-name="uni030F" unicode="&#x30f;" 
d="M217 1638l205 -376h-135l-248 376h178zM551 1638l190 -376h-137l-223 376h170zM120 803q15 -15 15 -35q0 -21 -15 -36q-14 -14 -35 -14t-35 14q-15 15 -15 36q0 20 15 35q14 15 35 15t35 -15zM980 803q14 -15 14 -35q0 -21 -14 -36q-15 -14 -36 -14t-36 14q-14 15 -14 36
q0 20 14 35q15 15 36 15t36 -15zM222 973q14 -15 14 -35q0 -21 -14 -36q-15 -14 -36 -14t-36 14q-14 15 -14 36q0 20 14 35q15 15 36 15t36 -15zM878 973q15 -15 15 -35q0 -21 -15 -36q-14 -14 -35 -14t-35 14q-15 15 -15 36q0 20 15 35q14 15 35 15t35 -15zM374 1085
q14 -15 14 -35q0 -21 -14 -36q-15 -14 -36 -14t-36 14q-14 15 -14 36q0 20 14 35q15 15 36 15t36 -15zM728 1085q14 -15 14 -35q0 -21 -14 -36q-15 -14 -36 -14t-36 14q-14 15 -14 36q0 20 14 35q15 15 36 15t36 -15zM550 1134q14 -15 14 -35q0 -21 -14 -35q-15 -15 -36 -15
t-36 15q-14 14 -14 35q0 20 14 35q15 15 36 15t36 -15zM50 509q-21 0 -36 15q-14 14 -14 35q0 20 14 35q15 15 36 15t36 -15q14 -15 14 -35q0 -21 -14 -35q-15 -15 -36 -15zM978 509q-21 0 -36 15q-14 14 -14 35q0 20 14 35q15 15 36 15t36 -15q14 -15 14 -35q0 -21 -14 -35
q-15 -15 -36 -15zM85 300q-21 0 -35 14q-15 15 -15 36q0 20 15 35q14 15 35 15t35 -15q15 -15 15 -35q0 -21 -15 -36q-14 -14 -35 -14zM944 300q-21 0 -36 14q-14 15 -14 36q0 20 14 35q15 15 36 15t36 -15q14 -15 14 -35q0 -21 -14 -36q-15 -14 -36 -14zM186 130
q-21 0 -36 14q-14 15 -14 36q0 20 14 35q15 15 36 15t36 -15q14 -15 14 -35q0 -21 -14 -36q-15 -14 -36 -14zM843 130q-21 0 -35 14q-15 15 -15 36q0 20 15 35q14 15 35 15t35 -15q15 -15 15 -35q0 -21 -15 -36q-14 -14 -35 -14zM338 18q-21 0 -36 14q-14 15 -14 36
q0 20 14 35q15 15 36 15t36 -15q14 -15 14 -35q0 -21 -14 -36q-15 -14 -36 -14zM692 18q-21 0 -36 14q-14 15 -14 36q0 20 14 35q15 15 36 15t36 -15q14 -15 14 -35q0 -21 -14 -36q-15 -14 -36 -14zM514 -31q-21 0 -36 15q-14 14 -14 35q0 20 14 35q15 15 36 15t36 -15
q14 -15 14 -35q0 -21 -14 -35q-15 -15 -36 -15z" />
    <glyph glyph-name="uni0310" unicode="&#x310;" 
d="M422 1878h184v-233h-184v233zM201 1608h118q11 -75 59 -112q49 -38 136 -38q86 0 134 37t61 113h118q-10 -143 -89 -215q-78 -72 -224 -72q-145 0 -224 72t-89 215zM120 803q15 -15 15 -35q0 -21 -15 -36q-14 -14 -35 -14t-35 14q-15 15 -15 36q0 20 15 35q14 15 35 15
t35 -15zM980 803q14 -15 14 -35q0 -21 -14 -36q-15 -14 -36 -14t-36 14q-14 15 -14 36q0 20 14 35q15 15 36 15t36 -15zM222 973q14 -15 14 -35q0 -21 -14 -36q-15 -14 -36 -14t-36 14q-14 15 -14 36q0 20 14 35q15 15 36 15t36 -15zM878 973q15 -15 15 -35q0 -21 -15 -36
q-14 -14 -35 -14t-35 14q-15 15 -15 36q0 20 15 35q14 15 35 15t35 -15zM374 1085q14 -15 14 -35q0 -21 -14 -36q-15 -14 -36 -14t-36 14q-14 15 -14 36q0 20 14 35q15 15 36 15t36 -15zM728 1085q14 -15 14 -35q0 -21 -14 -36q-15 -14 -36 -14t-36 14q-14 15 -14 36
q0 20 14 35q15 15 36 15t36 -15zM550 1134q14 -15 14 -35q0 -21 -14 -35q-15 -15 -36 -15t-36 15q-14 14 -14 35q0 20 14 35q15 15 36 15t36 -15zM50 509q-21 0 -36 15q-14 14 -14 35q0 20 14 35q15 15 36 15t36 -15q14 -15 14 -35q0 -21 -14 -35q-15 -15 -36 -15zM978 509
q-21 0 -36 15q-14 14 -14 35q0 20 14 35q15 15 36 15t36 -15q14 -15 14 -35q0 -21 -14 -35q-15 -15 -36 -15zM85 300q-21 0 -35 14q-15 15 -15 36q0 20 15 35q14 15 35 15t35 -15q15 -15 15 -35q0 -21 -15 -36q-14 -14 -35 -14zM944 300q-21 0 -36 14q-14 15 -14 36
q0 20 14 35q15 15 36 15t36 -15q14 -15 14 -35q0 -21 -14 -36q-15 -14 -36 -14zM186 130q-21 0 -36 14q-14 15 -14 36q0 20 14 35q15 15 36 15t36 -15q14 -15 14 -35q0 -21 -14 -36q-15 -14 -36 -14zM843 130q-21 0 -35 14q-15 15 -15 36q0 20 15 35q14 15 35 15t35 -15
q15 -15 15 -35q0 -21 -15 -36q-14 -14 -35 -14zM338 18q-21 0 -36 14q-14 15 -14 36q0 20 14 35q15 15 36 15t36 -15q14 -15 14 -35q0 -21 -14 -36q-15 -14 -36 -14zM692 18q-21 0 -36 14q-14 15 -14 36q0 20 14 35q15 15 36 15t36 -15q14 -15 14 -35q0 -21 -14 -36
q-15 -14 -36 -14zM514 -31q-21 0 -36 15q-14 14 -14 35q0 20 14 35q15 15 36 15t36 -15q14 -15 14 -35q0 -21 -14 -35q-15 -15 -36 -15z" />
    <glyph glyph-name="uni0311" unicode="&#x311;" 
d="M827 1321h-118q-11 75 -59 113q-49 37 -136 37q-85 0 -134 -37q-48 -37 -61 -113h-118q10 143 89 215t224 72q146 0 224 -72q79 -72 89 -215zM120 803q15 -15 15 -35q0 -21 -15 -36q-14 -14 -35 -14t-35 14q-15 15 -15 36q0 20 15 35q14 15 35 15t35 -15zM980 803
q14 -15 14 -35q0 -21 -14 -36q-15 -14 -36 -14t-36 14q-14 15 -14 36q0 20 14 35q15 15 36 15t36 -15zM222 973q14 -15 14 -35q0 -21 -14 -36q-15 -14 -36 -14t-36 14q-14 15 -14 36q0 20 14 35q15 15 36 15t36 -15zM878 973q15 -15 15 -35q0 -21 -15 -36q-14 -14 -35 -14
t-35 14q-15 15 -15 36q0 20 15 35q14 15 35 15t35 -15zM374 1085q14 -15 14 -35q0 -21 -14 -36q-15 -14 -36 -14t-36 14q-14 15 -14 36q0 20 14 35q15 15 36 15t36 -15zM728 1085q14 -15 14 -35q0 -21 -14 -36q-15 -14 -36 -14t-36 14q-14 15 -14 36q0 20 14 35q15 15 36 15
t36 -15zM550 1134q14 -15 14 -35q0 -21 -14 -35q-15 -15 -36 -15t-36 15q-14 14 -14 35q0 20 14 35q15 15 36 15t36 -15zM50 509q-21 0 -36 15q-14 14 -14 35q0 20 14 35q15 15 36 15t36 -15q14 -15 14 -35q0 -21 -14 -35q-15 -15 -36 -15zM978 509q-21 0 -36 15
q-14 14 -14 35q0 20 14 35q15 15 36 15t36 -15q14 -15 14 -35q0 -21 -14 -35q-15 -15 -36 -15zM85 300q-21 0 -35 14q-15 15 -15 36q0 20 15 35q14 15 35 15t35 -15q15 -15 15 -35q0 -21 -15 -36q-14 -14 -35 -14zM944 300q-21 0 -36 14q-14 15 -14 36q0 20 14 35
q15 15 36 15t36 -15q14 -15 14 -35q0 -21 -14 -36q-15 -14 -36 -14zM186 130q-21 0 -36 14q-14 15 -14 36q0 20 14 35q15 15 36 15t36 -15q14 -15 14 -35q0 -21 -14 -36q-15 -14 -36 -14zM843 130q-21 0 -35 14q-15 15 -15 36q0 20 15 35q14 15 35 15t35 -15q15 -15 15 -35
q0 -21 -15 -36q-14 -14 -35 -14zM338 18q-21 0 -36 14q-14 15 -14 36q0 20 14 35q15 15 36 15t36 -15q14 -15 14 -35q0 -21 -14 -36q-15 -14 -36 -14zM692 18q-21 0 -36 14q-14 15 -14 36q0 20 14 35q15 15 36 15t36 -15q14 -15 14 -35q0 -21 -14 -36q-15 -14 -36 -14z
M514 -31q-21 0 -36 15q-14 14 -14 35q0 20 14 35q15 15 36 15t36 -15q14 -15 14 -35q0 -21 -14 -35q-15 -15 -36 -15z" />
    <glyph glyph-name="uni0312" unicode="&#x312;" 
d="M120 803q15 -15 15 -35q0 -21 -15 -36q-14 -14 -35 -14t-35 14q-15 15 -15 36q0 20 15 35q14 15 35 15t35 -15zM980 803q14 -15 14 -35q0 -21 -14 -36q-15 -14 -36 -14t-36 14q-14 15 -14 36q0 20 14 35q15 15 36 15t36 -15zM222 973q14 -15 14 -35q0 -21 -14 -36
q-15 -14 -36 -14t-36 14q-14 15 -14 36q0 20 14 35q15 15 36 15t36 -15zM878 973q15 -15 15 -35q0 -21 -15 -36q-14 -14 -35 -14t-35 14q-15 15 -15 36q0 20 15 35q14 15 35 15t35 -15zM374 1085q14 -15 14 -35q0 -21 -14 -36q-15 -14 -36 -14t-36 14q-14 15 -14 36
q0 20 14 35q15 15 36 15t36 -15zM728 1085q14 -15 14 -35q0 -21 -14 -36q-15 -14 -36 -14t-36 14q-14 15 -14 36q0 20 14 35q15 15 36 15t36 -15zM550 1134q14 -15 14 -35q0 -21 -14 -35q-15 -15 -36 -15t-36 15q-14 14 -14 35q0 20 14 35q15 15 36 15t36 -15zM50 509
q-21 0 -36 15q-14 14 -14 35q0 20 14 35q15 15 36 15t36 -15q14 -15 14 -35q0 -21 -14 -35q-15 -15 -36 -15zM978 509q-21 0 -36 15q-14 14 -14 35q0 20 14 35q15 15 36 15t36 -15q14 -15 14 -35q0 -21 -14 -35q-15 -15 -36 -15zM85 300q-21 0 -35 14q-15 15 -15 36
q0 20 15 35q14 15 35 15t35 -15q15 -15 15 -35q0 -21 -15 -36q-14 -14 -35 -14zM944 300q-21 0 -36 14q-14 15 -14 36q0 20 14 35q15 15 36 15t36 -15q14 -15 14 -35q0 -21 -14 -36q-15 -14 -36 -14zM186 130q-21 0 -36 14q-14 15 -14 36q0 20 14 35q15 15 36 15t36 -15
q14 -15 14 -35q0 -21 -14 -36q-15 -14 -36 -14zM843 130q-21 0 -35 14q-15 15 -15 36q0 20 15 35q14 15 35 15t35 -15q15 -15 15 -35q0 -21 -15 -36q-14 -14 -35 -14zM338 18q-21 0 -36 14q-14 15 -14 36q0 20 14 35q15 15 36 15t36 -15q14 -15 14 -35q0 -21 -14 -36
q-15 -14 -36 -14zM692 18q-21 0 -36 14q-14 15 -14 36q0 20 14 35q15 15 36 15t36 -15q14 -15 14 -35q0 -21 -14 -36q-15 -14 -36 -14zM514 -31q-21 0 -36 15q-14 14 -14 35q0 20 14 35q15 15 36 15t36 -15q14 -15 14 -35q0 -21 -14 -35q-15 -15 -36 -15zM393 1472
q0 257 242 257v-123q-112 3 -112 -134h112v-254h-242v254z" />
    <glyph glyph-name="uni0313" unicode="&#x313;" 
d="M635 1475q0 -256 -242 -257v123q112 -2 112 134h-112v254h242v-254zM120 803q15 -15 15 -35q0 -21 -15 -36q-14 -14 -35 -14t-35 14q-15 15 -15 36q0 20 15 35q14 15 35 15t35 -15zM980 803q14 -15 14 -35q0 -21 -14 -36q-15 -14 -36 -14t-36 14q-14 15 -14 36
q0 20 14 35q15 15 36 15t36 -15zM222 973q14 -15 14 -35q0 -21 -14 -36q-15 -14 -36 -14t-36 14q-14 15 -14 36q0 20 14 35q15 15 36 15t36 -15zM878 973q15 -15 15 -35q0 -21 -15 -36q-14 -14 -35 -14t-35 14q-15 15 -15 36q0 20 15 35q14 15 35 15t35 -15zM374 1085
q14 -15 14 -35q0 -21 -14 -36q-15 -14 -36 -14t-36 14q-14 15 -14 36q0 20 14 35q15 15 36 15t36 -15zM728 1085q14 -15 14 -35q0 -21 -14 -36q-15 -14 -36 -14t-36 14q-14 15 -14 36q0 20 14 35q15 15 36 15t36 -15zM550 1134q14 -15 14 -35q0 -21 -14 -35q-15 -15 -36 -15
t-36 15q-14 14 -14 35q0 20 14 35q15 15 36 15t36 -15zM50 509q-21 0 -36 15q-14 14 -14 35q0 20 14 35q15 15 36 15t36 -15q14 -15 14 -35q0 -21 -14 -35q-15 -15 -36 -15zM978 509q-21 0 -36 15q-14 14 -14 35q0 20 14 35q15 15 36 15t36 -15q14 -15 14 -35q0 -21 -14 -35
q-15 -15 -36 -15zM85 300q-21 0 -35 14q-15 15 -15 36q0 20 15 35q14 15 35 15t35 -15q15 -15 15 -35q0 -21 -15 -36q-14 -14 -35 -14zM944 300q-21 0 -36 14q-14 15 -14 36q0 20 14 35q15 15 36 15t36 -15q14 -15 14 -35q0 -21 -14 -36q-15 -14 -36 -14zM186 130
q-21 0 -36 14q-14 15 -14 36q0 20 14 35q15 15 36 15t36 -15q14 -15 14 -35q0 -21 -14 -36q-15 -14 -36 -14zM843 130q-21 0 -35 14q-15 15 -15 36q0 20 15 35q14 15 35 15t35 -15q15 -15 15 -35q0 -21 -15 -36q-14 -14 -35 -14zM338 18q-21 0 -36 14q-14 15 -14 36
q0 20 14 35q15 15 36 15t36 -15q14 -15 14 -35q0 -21 -14 -36q-15 -14 -36 -14zM692 18q-21 0 -36 14q-14 15 -14 36q0 20 14 35q15 15 36 15t36 -15q14 -15 14 -35q0 -21 -14 -36q-15 -14 -36 -14zM514 -31q-21 0 -36 15q-14 14 -14 35q0 20 14 35q15 15 36 15t36 -15
q14 -15 14 -35q0 -21 -14 -35q-15 -15 -36 -15z" />
    <glyph glyph-name="uni0314" unicode="&#x314;" 
d="M393 1475v254h241v-254h-111q0 -136 112 -134v-123q-241 0 -242 257zM120 803q15 -15 15 -35q0 -21 -15 -36q-14 -14 -35 -14t-35 14q-15 15 -15 36q0 20 15 35q14 15 35 15t35 -15zM980 803q14 -15 14 -35q0 -21 -14 -36q-15 -14 -36 -14t-36 14q-14 15 -14 36
q0 20 14 35q15 15 36 15t36 -15zM222 973q14 -15 14 -35q0 -21 -14 -36q-15 -14 -36 -14t-36 14q-14 15 -14 36q0 20 14 35q15 15 36 15t36 -15zM878 973q15 -15 15 -35q0 -21 -15 -36q-14 -14 -35 -14t-35 14q-15 15 -15 36q0 20 15 35q14 15 35 15t35 -15zM374 1085
q14 -15 14 -35q0 -21 -14 -36q-15 -14 -36 -14t-36 14q-14 15 -14 36q0 20 14 35q15 15 36 15t36 -15zM728 1085q14 -15 14 -35q0 -21 -14 -36q-15 -14 -36 -14t-36 14q-14 15 -14 36q0 20 14 35q15 15 36 15t36 -15zM550 1134q14 -15 14 -35q0 -21 -14 -35q-15 -15 -36 -15
t-36 15q-14 14 -14 35q0 20 14 35q15 15 36 15t36 -15zM50 509q-21 0 -36 15q-14 14 -14 35q0 20 14 35q15 15 36 15t36 -15q14 -15 14 -35q0 -21 -14 -35q-15 -15 -36 -15zM978 509q-21 0 -36 15q-14 14 -14 35q0 20 14 35q15 15 36 15t36 -15q14 -15 14 -35q0 -21 -14 -35
q-15 -15 -36 -15zM85 300q-21 0 -35 14q-15 15 -15 36q0 20 15 35q14 15 35 15t35 -15q15 -15 15 -35q0 -21 -15 -36q-14 -14 -35 -14zM944 300q-21 0 -36 14q-14 15 -14 36q0 20 14 35q15 15 36 15t36 -15q14 -15 14 -35q0 -21 -14 -36q-15 -14 -36 -14zM186 130
q-21 0 -36 14q-14 15 -14 36q0 20 14 35q15 15 36 15t36 -15q14 -15 14 -35q0 -21 -14 -36q-15 -14 -36 -14zM843 130q-21 0 -35 14q-15 15 -15 36q0 20 15 35q14 15 35 15t35 -15q15 -15 15 -35q0 -21 -15 -36q-14 -14 -35 -14zM338 18q-21 0 -36 14q-14 15 -14 36
q0 20 14 35q15 15 36 15t36 -15q14 -15 14 -35q0 -21 -14 -36q-15 -14 -36 -14zM692 18q-21 0 -36 14q-14 15 -14 36q0 20 14 35q15 15 36 15t36 -15q14 -15 14 -35q0 -21 -14 -36q-15 -14 -36 -14zM514 -31q-21 0 -36 15q-14 14 -14 35q0 20 14 35q15 15 36 15t36 -15
q14 -15 14 -35q0 -21 -14 -35q-15 -15 -36 -15z" />
    <glyph glyph-name="uni0315" unicode="&#x315;" horiz-adv-x="1246" 
d="M230 803q15 -15 15 -35q0 -21 -15 -36q-14 -14 -35 -14t-35 14q-15 15 -15 36q0 20 15 35q14 15 35 15t35 -15zM1090 803q14 -15 14 -35q0 -21 -14 -36q-15 -14 -36 -14t-36 14q-14 15 -14 36q0 20 14 35q15 15 36 15t36 -15zM332 973q14 -15 14 -35q0 -21 -14 -36
q-15 -14 -36 -14t-36 14q-14 15 -14 36q0 20 14 35q15 15 36 15t36 -15zM988 973q15 -15 15 -35q0 -21 -15 -36q-14 -14 -35 -14t-35 14q-15 15 -15 36q0 20 15 35q14 15 35 15t35 -15zM484 1085q14 -15 14 -35q0 -21 -14 -36q-15 -14 -36 -14t-36 14q-14 15 -14 36
q0 20 14 35q15 15 36 15t36 -15zM838 1085q14 -15 14 -35q0 -21 -14 -36q-15 -14 -36 -14t-36 14q-14 15 -14 36q0 20 14 35q15 15 36 15t36 -15zM660 1134q14 -15 14 -35q0 -21 -14 -35q-15 -15 -36 -15t-36 15q-14 14 -14 35q0 20 14 35q15 15 36 15t36 -15zM160 509
q-21 0 -36 15q-14 14 -14 35q0 20 14 35q15 15 36 15t36 -15q14 -15 14 -35q0 -21 -14 -35q-15 -15 -36 -15zM1088 509q-21 0 -36 15q-14 14 -14 35q0 20 14 35q15 15 36 15t36 -15q14 -15 14 -35q0 -21 -14 -35q-15 -15 -36 -15zM195 300q-21 0 -35 14q-15 15 -15 36
q0 20 15 35q14 15 35 15t35 -15q15 -15 15 -35q0 -21 -15 -36q-14 -14 -35 -14zM1054 300q-21 0 -36 14q-14 15 -14 36q0 20 14 35q15 15 36 15t36 -15q14 -15 14 -35q0 -21 -14 -36q-15 -14 -36 -14zM296 130q-21 0 -36 14q-14 15 -14 36q0 20 14 35q15 15 36 15t36 -15
q14 -15 14 -35q0 -21 -14 -36q-15 -14 -36 -14zM953 130q-21 0 -35 14q-15 15 -15 36q0 20 15 35q14 15 35 15t35 -15q15 -15 15 -35q0 -21 -15 -36q-14 -14 -35 -14zM448 18q-21 0 -36 14q-14 15 -14 36q0 20 14 35q15 15 36 15t36 -15q14 -15 14 -35q0 -21 -14 -36
q-15 -14 -36 -14zM802 18q-21 0 -36 14q-14 15 -14 36q0 20 14 35q15 15 36 15t36 -15q14 -15 14 -35q0 -21 -14 -36q-15 -14 -36 -14zM624 -31q-21 0 -36 15q-14 14 -14 35q0 20 14 35q15 15 36 15t36 -15q14 -15 14 -35q0 -21 -14 -35q-15 -15 -36 -15zM1246 1475
q0 -256 -242 -257v123q112 -2 112 134h-112v254h242v-254z" />
    <glyph glyph-name="uni0316" unicode="&#x316;" 
d="M360 -171l282 -374h-153l-326 374h197zM120 803q15 -15 15 -35q0 -21 -15 -36q-14 -14 -35 -14t-35 14q-15 15 -15 36q0 20 15 35q14 15 35 15t35 -15zM980 803q14 -15 14 -35q0 -21 -14 -36q-15 -14 -36 -14t-36 14q-14 15 -14 36q0 20 14 35q15 15 36 15t36 -15z
M222 973q14 -15 14 -35q0 -21 -14 -36q-15 -14 -36 -14t-36 14q-14 15 -14 36q0 20 14 35q15 15 36 15t36 -15zM878 973q15 -15 15 -35q0 -21 -15 -36q-14 -14 -35 -14t-35 14q-15 15 -15 36q0 20 15 35q14 15 35 15t35 -15zM374 1085q14 -15 14 -35q0 -21 -14 -36
q-15 -14 -36 -14t-36 14q-14 15 -14 36q0 20 14 35q15 15 36 15t36 -15zM728 1085q14 -15 14 -35q0 -21 -14 -36q-15 -14 -36 -14t-36 14q-14 15 -14 36q0 20 14 35q15 15 36 15t36 -15zM550 1134q14 -15 14 -35q0 -21 -14 -35q-15 -15 -36 -15t-36 15q-14 14 -14 35
q0 20 14 35q15 15 36 15t36 -15zM50 509q-21 0 -36 15q-14 14 -14 35q0 20 14 35q15 15 36 15t36 -15q14 -15 14 -35q0 -21 -14 -35q-15 -15 -36 -15zM978 509q-21 0 -36 15q-14 14 -14 35q0 20 14 35q15 15 36 15t36 -15q14 -15 14 -35q0 -21 -14 -35q-15 -15 -36 -15z
M85 300q-21 0 -35 14q-15 15 -15 36q0 20 15 35q14 15 35 15t35 -15q15 -15 15 -35q0 -21 -15 -36q-14 -14 -35 -14zM944 300q-21 0 -36 14q-14 15 -14 36q0 20 14 35q15 15 36 15t36 -15q14 -15 14 -35q0 -21 -14 -36q-15 -14 -36 -14zM186 130q-21 0 -36 14q-14 15 -14 36
q0 20 14 35q15 15 36 15t36 -15q14 -15 14 -35q0 -21 -14 -36q-15 -14 -36 -14zM843 130q-21 0 -35 14q-15 15 -15 36q0 20 15 35q14 15 35 15t35 -15q15 -15 15 -35q0 -21 -15 -36q-14 -14 -35 -14zM338 18q-21 0 -36 14q-14 15 -14 36q0 20 14 35q15 15 36 15t36 -15
q14 -15 14 -35q0 -21 -14 -36q-15 -14 -36 -14zM692 18q-21 0 -36 14q-14 15 -14 36q0 20 14 35q15 15 36 15t36 -15q14 -15 14 -35q0 -21 -14 -36q-15 -14 -36 -14zM514 -31q-21 0 -36 15q-14 14 -14 35q0 20 14 35q15 15 36 15t36 -15q14 -15 14 -35q0 -21 -14 -35
q-15 -15 -36 -15z" />
    <glyph glyph-name="uni0317" unicode="&#x317;" 
d="M668 -171h199l-326 -376h-153zM120 803q15 -15 15 -35q0 -21 -15 -36q-14 -14 -35 -14t-35 14q-15 15 -15 36q0 20 15 35q14 15 35 15t35 -15zM980 803q14 -15 14 -35q0 -21 -14 -36q-15 -14 -36 -14t-36 14q-14 15 -14 36q0 20 14 35q15 15 36 15t36 -15zM222 973
q14 -15 14 -35q0 -21 -14 -36q-15 -14 -36 -14t-36 14q-14 15 -14 36q0 20 14 35q15 15 36 15t36 -15zM878 973q15 -15 15 -35q0 -21 -15 -36q-14 -14 -35 -14t-35 14q-15 15 -15 36q0 20 15 35q14 15 35 15t35 -15zM374 1085q14 -15 14 -35q0 -21 -14 -36q-15 -14 -36 -14
t-36 14q-14 15 -14 36q0 20 14 35q15 15 36 15t36 -15zM728 1085q14 -15 14 -35q0 -21 -14 -36q-15 -14 -36 -14t-36 14q-14 15 -14 36q0 20 14 35q15 15 36 15t36 -15zM550 1134q14 -15 14 -35q0 -21 -14 -35q-15 -15 -36 -15t-36 15q-14 14 -14 35q0 20 14 35q15 15 36 15
t36 -15zM50 509q-21 0 -36 15q-14 14 -14 35q0 20 14 35q15 15 36 15t36 -15q14 -15 14 -35q0 -21 -14 -35q-15 -15 -36 -15zM978 509q-21 0 -36 15q-14 14 -14 35q0 20 14 35q15 15 36 15t36 -15q14 -15 14 -35q0 -21 -14 -35q-15 -15 -36 -15zM85 300q-21 0 -35 14
q-15 15 -15 36q0 20 15 35q14 15 35 15t35 -15q15 -15 15 -35q0 -21 -15 -36q-14 -14 -35 -14zM944 300q-21 0 -36 14q-14 15 -14 36q0 20 14 35q15 15 36 15t36 -15q14 -15 14 -35q0 -21 -14 -36q-15 -14 -36 -14zM186 130q-21 0 -36 14q-14 15 -14 36q0 20 14 35
q15 15 36 15t36 -15q14 -15 14 -35q0 -21 -14 -36q-15 -14 -36 -14zM843 130q-21 0 -35 14q-15 15 -15 36q0 20 15 35q14 15 35 15t35 -15q15 -15 15 -35q0 -21 -15 -36q-14 -14 -35 -14zM338 18q-21 0 -36 14q-14 15 -14 36q0 20 14 35q15 15 36 15t36 -15q14 -15 14 -35
q0 -21 -14 -36q-15 -14 -36 -14zM692 18q-21 0 -36 14q-14 15 -14 36q0 20 14 35q15 15 36 15t36 -15q14 -15 14 -35q0 -21 -14 -36q-15 -14 -36 -14zM514 -31q-21 0 -36 15q-14 14 -14 35q0 20 14 35q15 15 36 15t36 -15q14 -15 14 -35q0 -21 -14 -35q-15 -15 -36 -15z" />
    <glyph glyph-name="uni0318" unicode="&#x318;" 
d="M120 803q15 -15 15 -35q0 -21 -15 -36q-14 -14 -35 -14t-35 14q-15 15 -15 36q0 20 15 35q14 15 35 15t35 -15zM980 803q14 -15 14 -35q0 -21 -14 -36q-15 -14 -36 -14t-36 14q-14 15 -14 36q0 20 14 35q15 15 36 15t36 -15zM222 973q14 -15 14 -35q0 -21 -14 -36
q-15 -14 -36 -14t-36 14q-14 15 -14 36q0 20 14 35q15 15 36 15t36 -15zM878 973q15 -15 15 -35q0 -21 -15 -36q-14 -14 -35 -14t-35 14q-15 15 -15 36q0 20 15 35q14 15 35 15t35 -15zM374 1085q14 -15 14 -35q0 -21 -14 -36q-15 -14 -36 -14t-36 14q-14 15 -14 36
q0 20 14 35q15 15 36 15t36 -15zM728 1085q14 -15 14 -35q0 -21 -14 -36q-15 -14 -36 -14t-36 14q-14 15 -14 36q0 20 14 35q15 15 36 15t36 -15zM550 1134q14 -15 14 -35q0 -21 -14 -35q-15 -15 -36 -15t-36 15q-14 14 -14 35q0 20 14 35q15 15 36 15t36 -15zM50 509
q-21 0 -36 15q-14 14 -14 35q0 20 14 35q15 15 36 15t36 -15q14 -15 14 -35q0 -21 -14 -35q-15 -15 -36 -15zM978 509q-21 0 -36 15q-14 14 -14 35q0 20 14 35q15 15 36 15t36 -15q14 -15 14 -35q0 -21 -14 -35q-15 -15 -36 -15zM85 300q-21 0 -35 14q-15 15 -15 36
q0 20 15 35q14 15 35 15t35 -15q15 -15 15 -35q0 -21 -15 -36q-14 -14 -35 -14zM944 300q-21 0 -36 14q-14 15 -14 36q0 20 14 35q15 15 36 15t36 -15q14 -15 14 -35q0 -21 -14 -36q-15 -14 -36 -14zM186 130q-21 0 -36 14q-14 15 -14 36q0 20 14 35q15 15 36 15t36 -15
q14 -15 14 -35q0 -21 -14 -36q-15 -14 -36 -14zM843 130q-21 0 -35 14q-15 15 -15 36q0 20 15 35q14 15 35 15t35 -15q15 -15 15 -35q0 -21 -15 -36q-14 -14 -35 -14zM338 18q-21 0 -36 14q-14 15 -14 36q0 20 14 35q15 15 36 15t36 -15q14 -15 14 -35q0 -21 -14 -36
q-15 -14 -36 -14zM692 18q-21 0 -36 14q-14 15 -14 36q0 20 14 35q15 15 36 15t36 -15q14 -15 14 -35q0 -21 -14 -36q-15 -14 -36 -14zM514 -31q-21 0 -36 15q-14 14 -14 35q0 20 14 35q15 15 36 15t36 -15q14 -15 14 -35q0 -21 -14 -35q-15 -15 -36 -15zM454 -331h-160v120
h160v161h120v-442h-120v161z" />
    <glyph glyph-name="uni0319" unicode="&#x319;" 
d="M454 -50h120v-161h160v-120h-160v-161h-120v442zM120 803q15 -15 15 -35q0 -21 -15 -36q-14 -14 -35 -14t-35 14q-15 15 -15 36q0 20 15 35q14 15 35 15t35 -15zM980 803q14 -15 14 -35q0 -21 -14 -36q-15 -14 -36 -14t-36 14q-14 15 -14 36q0 20 14 35q15 15 36 15
t36 -15zM222 973q14 -15 14 -35q0 -21 -14 -36q-15 -14 -36 -14t-36 14q-14 15 -14 36q0 20 14 35q15 15 36 15t36 -15zM878 973q15 -15 15 -35q0 -21 -15 -36q-14 -14 -35 -14t-35 14q-15 15 -15 36q0 20 15 35q14 15 35 15t35 -15zM374 1085q14 -15 14 -35q0 -21 -14 -36
q-15 -14 -36 -14t-36 14q-14 15 -14 36q0 20 14 35q15 15 36 15t36 -15zM728 1085q14 -15 14 -35q0 -21 -14 -36q-15 -14 -36 -14t-36 14q-14 15 -14 36q0 20 14 35q15 15 36 15t36 -15zM550 1134q14 -15 14 -35q0 -21 -14 -35q-15 -15 -36 -15t-36 15q-14 14 -14 35
q0 20 14 35q15 15 36 15t36 -15zM50 509q-21 0 -36 15q-14 14 -14 35q0 20 14 35q15 15 36 15t36 -15q14 -15 14 -35q0 -21 -14 -35q-15 -15 -36 -15zM978 509q-21 0 -36 15q-14 14 -14 35q0 20 14 35q15 15 36 15t36 -15q14 -15 14 -35q0 -21 -14 -35q-15 -15 -36 -15z
M85 300q-21 0 -35 14q-15 15 -15 36q0 20 15 35q14 15 35 15t35 -15q15 -15 15 -35q0 -21 -15 -36q-14 -14 -35 -14zM944 300q-21 0 -36 14q-14 15 -14 36q0 20 14 35q15 15 36 15t36 -15q14 -15 14 -35q0 -21 -14 -36q-15 -14 -36 -14zM186 130q-21 0 -36 14q-14 15 -14 36
q0 20 14 35q15 15 36 15t36 -15q14 -15 14 -35q0 -21 -14 -36q-15 -14 -36 -14zM843 130q-21 0 -35 14q-15 15 -15 36q0 20 15 35q14 15 35 15t35 -15q15 -15 15 -35q0 -21 -15 -36q-14 -14 -35 -14zM338 18q-21 0 -36 14q-14 15 -14 36q0 20 14 35q15 15 36 15t36 -15
q14 -15 14 -35q0 -21 -14 -36q-15 -14 -36 -14zM692 18q-21 0 -36 14q-14 15 -14 36q0 20 14 35q15 15 36 15t36 -15q14 -15 14 -35q0 -21 -14 -36q-15 -14 -36 -14zM514 -31q-21 0 -36 15q-14 14 -14 35q0 20 14 35q15 15 36 15t36 -15q14 -15 14 -35q0 -21 -14 -35
q-15 -15 -36 -15z" />
    <glyph glyph-name="uni031A" unicode="&#x31a;" horiz-adv-x="1540" 
d="M1404 1357h-354v136h490v-490h-136v354zM378 803q14 -15 14 -35q0 -21 -14 -36q-15 -14 -36 -14t-36 14q-14 15 -14 36q0 20 14 35q15 15 36 15t36 -15zM1236 803q15 -15 15 -35q0 -21 -15 -36q-14 -14 -35 -14t-35 14q-15 15 -15 36q0 20 15 35q14 15 35 15t35 -15z
M478 973q15 -15 15 -35q0 -21 -15 -36q-14 -14 -35 -14t-35 14q-15 15 -15 36q0 20 15 35q14 15 35 15t35 -15zM1136 973q14 -15 14 -35q0 -21 -14 -36q-15 -14 -36 -14t-36 14q-14 15 -14 36q0 20 14 35q15 15 36 15t36 -15zM630 1085q15 -15 15 -35q0 -21 -15 -36
q-14 -14 -35 -14t-35 14q-15 15 -15 36q0 20 15 35q14 15 35 15t35 -15zM984 1085q15 -15 15 -35q0 -21 -15 -36q-14 -14 -35 -14t-35 14q-15 15 -15 36q0 20 15 35q14 15 35 15t35 -15zM806 1134q15 -15 15 -35q0 -21 -15 -35q-14 -15 -35 -15t-35 15q-15 14 -15 35
q0 20 15 35q14 15 35 15t35 -15zM307 509q-21 0 -35 15q-15 14 -15 35q0 20 15 35q14 15 35 15t35 -15q15 -15 15 -35q0 -21 -15 -35q-14 -15 -35 -15zM1235 509q-21 0 -35 15q-15 14 -15 35q0 20 15 35q14 15 35 15t35 -15q15 -15 15 -35q0 -21 -15 -35q-14 -15 -35 -15z
M342 300q-21 0 -36 14q-14 15 -14 36q0 20 14 35q15 15 36 15t36 -15q14 -15 14 -35q0 -21 -14 -36q-15 -14 -36 -14zM1201 300q-21 0 -35 14q-15 15 -15 36q0 20 15 35q14 15 35 15t35 -15q15 -15 15 -35q0 -21 -15 -36q-14 -14 -35 -14zM443 130q-21 0 -35 14
q-15 15 -15 36q0 20 15 35q14 15 35 15t35 -15q15 -15 15 -35q0 -21 -15 -36q-14 -14 -35 -14zM1100 130q-21 0 -36 14q-14 15 -14 36q0 20 14 35q15 15 36 15t36 -15q14 -15 14 -35q0 -21 -14 -36q-15 -14 -36 -14zM595 18q-21 0 -35 14q-15 15 -15 36q0 20 15 35
q14 15 35 15t35 -15q15 -15 15 -35q0 -21 -15 -36q-14 -14 -35 -14zM949 18q-21 0 -35 14q-15 15 -15 36q0 20 15 35q14 15 35 15t35 -15q15 -15 15 -35q0 -21 -15 -36q-14 -14 -35 -14zM771 -31q-21 0 -35 15q-15 14 -15 35q0 20 15 35q14 15 35 15t35 -15q15 -15 15 -35
q0 -21 -15 -35q-14 -15 -35 -15z" />
    <glyph glyph-name="uni031B" unicode="&#x31b;" horiz-adv-x="1820" 
d="M1425 983v119q62 -45 105 -66q44 -22 75 -22q47 0 69 28q23 27 23 81q0 32 -7 63q-8 31 -23 62h133q11 -37 15 -72q5 -34 5 -64q0 -121 -44 -180q-43 -57 -136 -57q-48 0 -100 27q-54 26 -115 81zM518 803q14 -15 14 -35q0 -21 -14 -36q-15 -14 -36 -14t-36 14
q-14 15 -14 36q0 20 14 35q15 15 36 15t36 -15zM1376 803q15 -15 15 -35q0 -21 -15 -36q-14 -14 -35 -14t-35 14q-15 15 -15 36q0 20 15 35q14 15 35 15t35 -15zM618 973q15 -15 15 -35q0 -21 -15 -36q-14 -14 -35 -14t-35 14q-15 15 -15 36q0 20 15 35q14 15 35 15t35 -15z
M1276 973q14 -15 14 -35q0 -21 -14 -36q-15 -14 -36 -14t-36 14q-14 15 -14 36q0 20 14 35q15 15 36 15t36 -15zM770 1085q15 -15 15 -35q0 -21 -15 -36q-14 -14 -35 -14t-35 14q-15 15 -15 36q0 20 15 35q14 15 35 15t35 -15zM1124 1085q15 -15 15 -35q0 -21 -15 -36
q-14 -14 -35 -14t-35 14q-15 15 -15 36q0 20 15 35q14 15 35 15t35 -15zM946 1134q15 -15 15 -35q0 -21 -15 -35q-14 -15 -35 -15t-35 15q-15 14 -15 35q0 20 15 35q14 15 35 15t35 -15zM447 509q-21 0 -35 15q-15 14 -15 35q0 20 15 35q14 15 35 15t35 -15q15 -15 15 -35
q0 -21 -15 -35q-14 -15 -35 -15zM1375 509q-21 0 -35 15q-15 14 -15 35q0 20 15 35q14 15 35 15t35 -15q15 -15 15 -35q0 -21 -15 -35q-14 -15 -35 -15zM482 300q-21 0 -36 14q-14 15 -14 36q0 20 14 35q15 15 36 15t36 -15q14 -15 14 -35q0 -21 -14 -36q-15 -14 -36 -14z
M1341 300q-21 0 -35 14q-15 15 -15 36q0 20 15 35q14 15 35 15t35 -15q15 -15 15 -35q0 -21 -15 -36q-14 -14 -35 -14zM583 130q-21 0 -35 14q-15 15 -15 36q0 20 15 35q14 15 35 15t35 -15q15 -15 15 -35q0 -21 -15 -36q-14 -14 -35 -14zM1240 130q-21 0 -36 14
q-14 15 -14 36q0 20 14 35q15 15 36 15t36 -15q14 -15 14 -35q0 -21 -14 -36q-15 -14 -36 -14zM735 18q-21 0 -35 14q-15 15 -15 36q0 20 15 35q14 15 35 15t35 -15q15 -15 15 -35q0 -21 -15 -36q-14 -14 -35 -14zM1089 18q-21 0 -35 14q-15 15 -15 36q0 20 15 35
q14 15 35 15t35 -15q15 -15 15 -35q0 -21 -15 -36q-14 -14 -35 -14zM911 -31q-21 0 -35 15q-15 14 -15 35q0 20 15 35q14 15 35 15t35 -15q15 -15 15 -35q0 -21 -15 -35q-14 -15 -35 -15z" />
    <glyph glyph-name="uni031C" unicode="&#x31c;" 
d="M621 -494q-90 0 -152 62q-62 63 -62 153q0 89 62 151t152 62v-120q-40 0 -67 -26q-26 -27 -26 -66q0 -40 26 -66q27 -27 67 -27v-123zM120 803q15 -15 15 -35q0 -21 -15 -36q-14 -14 -35 -14t-35 14q-15 15 -15 36q0 20 15 35q14 15 35 15t35 -15zM980 803q14 -15 14 -35
q0 -21 -14 -36q-15 -14 -36 -14t-36 14q-14 15 -14 36q0 20 14 35q15 15 36 15t36 -15zM222 973q14 -15 14 -35q0 -21 -14 -36q-15 -14 -36 -14t-36 14q-14 15 -14 36q0 20 14 35q15 15 36 15t36 -15zM878 973q15 -15 15 -35q0 -21 -15 -36q-14 -14 -35 -14t-35 14
q-15 15 -15 36q0 20 15 35q14 15 35 15t35 -15zM374 1085q14 -15 14 -35q0 -21 -14 -36q-15 -14 -36 -14t-36 14q-14 15 -14 36q0 20 14 35q15 15 36 15t36 -15zM728 1085q14 -15 14 -35q0 -21 -14 -36q-15 -14 -36 -14t-36 14q-14 15 -14 36q0 20 14 35q15 15 36 15t36 -15
zM550 1134q14 -15 14 -35q0 -21 -14 -35q-15 -15 -36 -15t-36 15q-14 14 -14 35q0 20 14 35q15 15 36 15t36 -15zM50 509q-21 0 -36 15q-14 14 -14 35q0 20 14 35q15 15 36 15t36 -15q14 -15 14 -35q0 -21 -14 -35q-15 -15 -36 -15zM978 509q-21 0 -36 15q-14 14 -14 35
q0 20 14 35q15 15 36 15t36 -15q14 -15 14 -35q0 -21 -14 -35q-15 -15 -36 -15zM85 300q-21 0 -35 14q-15 15 -15 36q0 20 15 35q14 15 35 15t35 -15q15 -15 15 -35q0 -21 -15 -36q-14 -14 -35 -14zM944 300q-21 0 -36 14q-14 15 -14 36q0 20 14 35q15 15 36 15t36 -15
q14 -15 14 -35q0 -21 -14 -36q-15 -14 -36 -14zM186 130q-21 0 -36 14q-14 15 -14 36q0 20 14 35q15 15 36 15t36 -15q14 -15 14 -35q0 -21 -14 -36q-15 -14 -36 -14zM843 130q-21 0 -35 14q-15 15 -15 36q0 20 15 35q14 15 35 15t35 -15q15 -15 15 -35q0 -21 -15 -36
q-14 -14 -35 -14zM338 18q-21 0 -36 14q-14 15 -14 36q0 20 14 35q15 15 36 15t36 -15q14 -15 14 -35q0 -21 -14 -36q-15 -14 -36 -14zM692 18q-21 0 -36 14q-14 15 -14 36q0 20 14 35q15 15 36 15t36 -15q14 -15 14 -35q0 -21 -14 -36q-15 -14 -36 -14zM514 -31
q-21 0 -36 15q-14 14 -14 35q0 20 14 35q15 15 36 15t36 -15q14 -15 14 -35q0 -21 -14 -35q-15 -15 -36 -15z" />
    <glyph glyph-name="uni031D" unicode="&#x31d;" 
d="M582 -356h177v-136h-490v136h177v177h136v-177zM120 803q15 -15 15 -35q0 -21 -15 -36q-14 -14 -35 -14t-35 14q-15 15 -15 36q0 20 15 35q14 15 35 15t35 -15zM980 803q14 -15 14 -35q0 -21 -14 -36q-15 -14 -36 -14t-36 14q-14 15 -14 36q0 20 14 35q15 15 36 15
t36 -15zM222 973q14 -15 14 -35q0 -21 -14 -36q-15 -14 -36 -14t-36 14q-14 15 -14 36q0 20 14 35q15 15 36 15t36 -15zM878 973q15 -15 15 -35q0 -21 -15 -36q-14 -14 -35 -14t-35 14q-15 15 -15 36q0 20 15 35q14 15 35 15t35 -15zM374 1085q14 -15 14 -35q0 -21 -14 -36
q-15 -14 -36 -14t-36 14q-14 15 -14 36q0 20 14 35q15 15 36 15t36 -15zM728 1085q14 -15 14 -35q0 -21 -14 -36q-15 -14 -36 -14t-36 14q-14 15 -14 36q0 20 14 35q15 15 36 15t36 -15zM550 1134q14 -15 14 -35q0 -21 -14 -35q-15 -15 -36 -15t-36 15q-14 14 -14 35
q0 20 14 35q15 15 36 15t36 -15zM50 509q-21 0 -36 15q-14 14 -14 35q0 20 14 35q15 15 36 15t36 -15q14 -15 14 -35q0 -21 -14 -35q-15 -15 -36 -15zM978 509q-21 0 -36 15q-14 14 -14 35q0 20 14 35q15 15 36 15t36 -15q14 -15 14 -35q0 -21 -14 -35q-15 -15 -36 -15z
M85 300q-21 0 -35 14q-15 15 -15 36q0 20 15 35q14 15 35 15t35 -15q15 -15 15 -35q0 -21 -15 -36q-14 -14 -35 -14zM944 300q-21 0 -36 14q-14 15 -14 36q0 20 14 35q15 15 36 15t36 -15q14 -15 14 -35q0 -21 -14 -36q-15 -14 -36 -14zM186 130q-21 0 -36 14q-14 15 -14 36
q0 20 14 35q15 15 36 15t36 -15q14 -15 14 -35q0 -21 -14 -36q-15 -14 -36 -14zM843 130q-21 0 -35 14q-15 15 -15 36q0 20 15 35q14 15 35 15t35 -15q15 -15 15 -35q0 -21 -15 -36q-14 -14 -35 -14zM338 18q-21 0 -36 14q-14 15 -14 36q0 20 14 35q15 15 36 15t36 -15
q14 -15 14 -35q0 -21 -14 -36q-15 -14 -36 -14zM692 18q-21 0 -36 14q-14 15 -14 36q0 20 14 35q15 15 36 15t36 -15q14 -15 14 -35q0 -21 -14 -36q-15 -14 -36 -14zM514 -31q-21 0 -36 15q-14 14 -14 35q0 20 14 35q15 15 36 15t36 -15q14 -15 14 -35q0 -21 -14 -35
q-15 -15 -36 -15z" />
    <glyph glyph-name="uni031E" unicode="&#x31e;" 
d="M446 -315h-177v136h490v-136h-177v-177h-136v177zM120 803q15 -15 15 -35q0 -21 -15 -36q-14 -14 -35 -14t-35 14q-15 15 -15 36q0 20 15 35q14 15 35 15t35 -15zM980 803q14 -15 14 -35q0 -21 -14 -36q-15 -14 -36 -14t-36 14q-14 15 -14 36q0 20 14 35q15 15 36 15
t36 -15zM222 973q14 -15 14 -35q0 -21 -14 -36q-15 -14 -36 -14t-36 14q-14 15 -14 36q0 20 14 35q15 15 36 15t36 -15zM878 973q15 -15 15 -35q0 -21 -15 -36q-14 -14 -35 -14t-35 14q-15 15 -15 36q0 20 15 35q14 15 35 15t35 -15zM374 1085q14 -15 14 -35q0 -21 -14 -36
q-15 -14 -36 -14t-36 14q-14 15 -14 36q0 20 14 35q15 15 36 15t36 -15zM728 1085q14 -15 14 -35q0 -21 -14 -36q-15 -14 -36 -14t-36 14q-14 15 -14 36q0 20 14 35q15 15 36 15t36 -15zM550 1134q14 -15 14 -35q0 -21 -14 -35q-15 -15 -36 -15t-36 15q-14 14 -14 35
q0 20 14 35q15 15 36 15t36 -15zM50 509q-21 0 -36 15q-14 14 -14 35q0 20 14 35q15 15 36 15t36 -15q14 -15 14 -35q0 -21 -14 -35q-15 -15 -36 -15zM978 509q-21 0 -36 15q-14 14 -14 35q0 20 14 35q15 15 36 15t36 -15q14 -15 14 -35q0 -21 -14 -35q-15 -15 -36 -15z
M85 300q-21 0 -35 14q-15 15 -15 36q0 20 15 35q14 15 35 15t35 -15q15 -15 15 -35q0 -21 -15 -36q-14 -14 -35 -14zM944 300q-21 0 -36 14q-14 15 -14 36q0 20 14 35q15 15 36 15t36 -15q14 -15 14 -35q0 -21 -14 -36q-15 -14 -36 -14zM186 130q-21 0 -36 14q-14 15 -14 36
q0 20 14 35q15 15 36 15t36 -15q14 -15 14 -35q0 -21 -14 -36q-15 -14 -36 -14zM843 130q-21 0 -35 14q-15 15 -15 36q0 20 15 35q14 15 35 15t35 -15q15 -15 15 -35q0 -21 -15 -36q-14 -14 -35 -14zM338 18q-21 0 -36 14q-14 15 -14 36q0 20 14 35q15 15 36 15t36 -15
q14 -15 14 -35q0 -21 -14 -36q-15 -14 -36 -14zM692 18q-21 0 -36 14q-14 15 -14 36q0 20 14 35q15 15 36 15t36 -15q14 -15 14 -35q0 -21 -14 -36q-15 -14 -36 -14zM514 -31q-21 0 -36 15q-14 14 -14 35q0 20 14 35q15 15 36 15t36 -15q14 -15 14 -35q0 -21 -14 -35
q-15 -15 -36 -15z" />
    <glyph glyph-name="uni031F" unicode="&#x31f;" 
d="M454 -331h-160v120h160v161h120v-161h160v-120h-160v-161h-120v161zM120 803q15 -15 15 -35q0 -21 -15 -36q-14 -14 -35 -14t-35 14q-15 15 -15 36q0 20 15 35q14 15 35 15t35 -15zM980 803q14 -15 14 -35q0 -21 -14 -36q-15 -14 -36 -14t-36 14q-14 15 -14 36
q0 20 14 35q15 15 36 15t36 -15zM222 973q14 -15 14 -35q0 -21 -14 -36q-15 -14 -36 -14t-36 14q-14 15 -14 36q0 20 14 35q15 15 36 15t36 -15zM878 973q15 -15 15 -35q0 -21 -15 -36q-14 -14 -35 -14t-35 14q-15 15 -15 36q0 20 15 35q14 15 35 15t35 -15zM374 1085
q14 -15 14 -35q0 -21 -14 -36q-15 -14 -36 -14t-36 14q-14 15 -14 36q0 20 14 35q15 15 36 15t36 -15zM728 1085q14 -15 14 -35q0 -21 -14 -36q-15 -14 -36 -14t-36 14q-14 15 -14 36q0 20 14 35q15 15 36 15t36 -15zM550 1134q14 -15 14 -35q0 -21 -14 -35q-15 -15 -36 -15
t-36 15q-14 14 -14 35q0 20 14 35q15 15 36 15t36 -15zM50 509q-21 0 -36 15q-14 14 -14 35q0 20 14 35q15 15 36 15t36 -15q14 -15 14 -35q0 -21 -14 -35q-15 -15 -36 -15zM978 509q-21 0 -36 15q-14 14 -14 35q0 20 14 35q15 15 36 15t36 -15q14 -15 14 -35q0 -21 -14 -35
q-15 -15 -36 -15zM85 300q-21 0 -35 14q-15 15 -15 36q0 20 15 35q14 15 35 15t35 -15q15 -15 15 -35q0 -21 -15 -36q-14 -14 -35 -14zM944 300q-21 0 -36 14q-14 15 -14 36q0 20 14 35q15 15 36 15t36 -15q14 -15 14 -35q0 -21 -14 -36q-15 -14 -36 -14zM186 130
q-21 0 -36 14q-14 15 -14 36q0 20 14 35q15 15 36 15t36 -15q14 -15 14 -35q0 -21 -14 -36q-15 -14 -36 -14zM843 130q-21 0 -35 14q-15 15 -15 36q0 20 15 35q14 15 35 15t35 -15q15 -15 15 -35q0 -21 -15 -36q-14 -14 -35 -14zM338 18q-21 0 -36 14q-14 15 -14 36
q0 20 14 35q15 15 36 15t36 -15q14 -15 14 -35q0 -21 -14 -36q-15 -14 -36 -14zM692 18q-21 0 -36 14q-14 15 -14 36q0 20 14 35q15 15 36 15t36 -15q14 -15 14 -35q0 -21 -14 -36q-15 -14 -36 -14zM514 -31q-21 0 -36 15q-14 14 -14 35q0 20 14 35q15 15 36 15t36 -15
q14 -15 14 -35q0 -21 -14 -35q-15 -15 -36 -15z" />
    <glyph glyph-name="uni0320" unicode="&#x320;" 
d="M269 -376v136h490v-136h-490zM120 803q15 -15 15 -35q0 -21 -15 -36q-14 -14 -35 -14t-35 14q-15 15 -15 36q0 20 15 35q14 15 35 15t35 -15zM980 803q14 -15 14 -35q0 -21 -14 -36q-15 -14 -36 -14t-36 14q-14 15 -14 36q0 20 14 35q15 15 36 15t36 -15zM222 973
q14 -15 14 -35q0 -21 -14 -36q-15 -14 -36 -14t-36 14q-14 15 -14 36q0 20 14 35q15 15 36 15t36 -15zM878 973q15 -15 15 -35q0 -21 -15 -36q-14 -14 -35 -14t-35 14q-15 15 -15 36q0 20 15 35q14 15 35 15t35 -15zM374 1085q14 -15 14 -35q0 -21 -14 -36q-15 -14 -36 -14
t-36 14q-14 15 -14 36q0 20 14 35q15 15 36 15t36 -15zM728 1085q14 -15 14 -35q0 -21 -14 -36q-15 -14 -36 -14t-36 14q-14 15 -14 36q0 20 14 35q15 15 36 15t36 -15zM550 1134q14 -15 14 -35q0 -21 -14 -35q-15 -15 -36 -15t-36 15q-14 14 -14 35q0 20 14 35q15 15 36 15
t36 -15zM50 509q-21 0 -36 15q-14 14 -14 35q0 20 14 35q15 15 36 15t36 -15q14 -15 14 -35q0 -21 -14 -35q-15 -15 -36 -15zM978 509q-21 0 -36 15q-14 14 -14 35q0 20 14 35q15 15 36 15t36 -15q14 -15 14 -35q0 -21 -14 -35q-15 -15 -36 -15zM85 300q-21 0 -35 14
q-15 15 -15 36q0 20 15 35q14 15 35 15t35 -15q15 -15 15 -35q0 -21 -15 -36q-14 -14 -35 -14zM944 300q-21 0 -36 14q-14 15 -14 36q0 20 14 35q15 15 36 15t36 -15q14 -15 14 -35q0 -21 -14 -36q-15 -14 -36 -14zM186 130q-21 0 -36 14q-14 15 -14 36q0 20 14 35
q15 15 36 15t36 -15q14 -15 14 -35q0 -21 -14 -36q-15 -14 -36 -14zM843 130q-21 0 -35 14q-15 15 -15 36q0 20 15 35q14 15 35 15t35 -15q15 -15 15 -35q0 -21 -15 -36q-14 -14 -35 -14zM338 18q-21 0 -36 14q-14 15 -14 36q0 20 14 35q15 15 36 15t36 -15q14 -15 14 -35
q0 -21 -14 -36q-15 -14 -36 -14zM692 18q-21 0 -36 14q-14 15 -14 36q0 20 14 35q15 15 36 15t36 -15q14 -15 14 -35q0 -21 -14 -36q-15 -14 -36 -14zM514 -31q-21 0 -36 15q-14 14 -14 35q0 20 14 35q15 15 36 15t36 -15q14 -15 14 -35q0 -21 -14 -35q-15 -15 -36 -15z" />
    <glyph glyph-name="uni0321" unicode="&#x321;" 
d="M860 130v-148q0 -214 -82 -310q-80 -96 -262 -96h-254v156h233q105 0 143 48q38 49 38 202v148h184zM120 803q15 -15 15 -35q0 -21 -15 -36q-14 -14 -35 -14t-35 14q-15 15 -15 36q0 20 15 35q14 15 35 15t35 -15zM980 803q14 -15 14 -35q0 -21 -14 -36q-15 -14 -36 -14
t-36 14q-14 15 -14 36q0 20 14 35q15 15 36 15t36 -15zM222 973q14 -15 14 -35q0 -21 -14 -36q-15 -14 -36 -14t-36 14q-14 15 -14 36q0 20 14 35q15 15 36 15t36 -15zM878 973q15 -15 15 -35q0 -21 -15 -36q-14 -14 -35 -14t-35 14q-15 15 -15 36q0 20 15 35q14 15 35 15
t35 -15zM374 1085q14 -15 14 -35q0 -21 -14 -36q-15 -14 -36 -14t-36 14q-14 15 -14 36q0 20 14 35q15 15 36 15t36 -15zM728 1085q14 -15 14 -35q0 -21 -14 -36q-15 -14 -36 -14t-36 14q-14 15 -14 36q0 20 14 35q15 15 36 15t36 -15zM550 1134q14 -15 14 -35
q0 -21 -14 -35q-15 -15 -36 -15t-36 15q-14 14 -14 35q0 20 14 35q15 15 36 15t36 -15zM50 509q-21 0 -36 15q-14 14 -14 35q0 20 14 35q15 15 36 15t36 -15q14 -15 14 -35q0 -21 -14 -35q-15 -15 -36 -15zM978 509q-21 0 -36 15q-14 14 -14 35q0 20 14 35q15 15 36 15
t36 -15q14 -15 14 -35q0 -21 -14 -35q-15 -15 -36 -15zM85 300q-21 0 -35 14q-15 15 -15 36q0 20 15 35q14 15 35 15t35 -15q15 -15 15 -35q0 -21 -15 -36q-14 -14 -35 -14zM944 300q-21 0 -36 14q-14 15 -14 36q0 20 14 35q15 15 36 15t36 -15q14 -15 14 -35q0 -21 -14 -36
q-15 -14 -36 -14zM186 130q-21 0 -36 14q-14 15 -14 36q0 20 14 35q15 15 36 15t36 -15q14 -15 14 -35q0 -21 -14 -36q-15 -14 -36 -14zM843 130q-21 0 -35 14q-15 15 -15 36q0 20 15 35q14 15 35 15t35 -15q15 -15 15 -35q0 -21 -15 -36q-14 -14 -35 -14zM338 18
q-21 0 -36 14q-14 15 -14 36q0 20 14 35q15 15 36 15t36 -15q14 -15 14 -35q0 -21 -14 -36q-15 -14 -36 -14zM692 18q-21 0 -36 14q-14 15 -14 36q0 20 14 35q15 15 36 15t36 -15q14 -15 14 -35q0 -21 -14 -36q-15 -14 -36 -14zM514 -31q-21 0 -36 15q-14 14 -14 35
q0 20 14 35q15 15 36 15t36 -15q14 -15 14 -35q0 -21 -14 -35q-15 -15 -36 -15z" />
    <glyph glyph-name="uni0322" unicode="&#x322;" horiz-adv-x="1522" 
d="M924 130h184v-148q0 -153 38 -202q38 -48 143 -48h233v-156h-254q-181 0 -262 96q-82 96 -82 310v148zM368 803q15 -15 15 -35q0 -21 -15 -36q-14 -14 -35 -14t-35 14q-15 15 -15 36q0 20 15 35q14 15 35 15t35 -15zM1228 803q14 -15 14 -35q0 -21 -14 -36
q-15 -14 -36 -14t-36 14q-14 15 -14 36q0 20 14 35q15 15 36 15t36 -15zM470 973q14 -15 14 -35q0 -21 -14 -36q-15 -14 -36 -14t-36 14q-14 15 -14 36q0 20 14 35q15 15 36 15t36 -15zM1126 973q15 -15 15 -35q0 -21 -15 -36q-14 -14 -35 -14t-35 14q-15 15 -15 36
q0 20 15 35q14 15 35 15t35 -15zM622 1085q14 -15 14 -35q0 -21 -14 -36q-15 -14 -36 -14t-36 14q-14 15 -14 36q0 20 14 35q15 15 36 15t36 -15zM976 1085q14 -15 14 -35q0 -21 -14 -36q-15 -14 -36 -14t-36 14q-14 15 -14 36q0 20 14 35q15 15 36 15t36 -15zM798 1134
q14 -15 14 -35q0 -21 -14 -35q-15 -15 -36 -15t-36 15q-14 14 -14 35q0 20 14 35q15 15 36 15t36 -15zM298 509q-21 0 -36 15q-14 14 -14 35q0 20 14 35q15 15 36 15t36 -15q14 -15 14 -35q0 -21 -14 -35q-15 -15 -36 -15zM1226 509q-21 0 -36 15q-14 14 -14 35q0 20 14 35
q15 15 36 15t36 -15q14 -15 14 -35q0 -21 -14 -35q-15 -15 -36 -15zM333 300q-21 0 -35 14q-15 15 -15 36q0 20 15 35q14 15 35 15t35 -15q15 -15 15 -35q0 -21 -15 -36q-14 -14 -35 -14zM1192 300q-21 0 -36 14q-14 15 -14 36q0 20 14 35q15 15 36 15t36 -15q14 -15 14 -35
q0 -21 -14 -36q-15 -14 -36 -14zM434 130q-21 0 -36 14q-14 15 -14 36q0 20 14 35q15 15 36 15t36 -15q14 -15 14 -35q0 -21 -14 -36q-15 -14 -36 -14zM1091 130q-21 0 -35 14q-15 15 -15 36q0 20 15 35q14 15 35 15t35 -15q15 -15 15 -35q0 -21 -15 -36q-14 -14 -35 -14z
M586 18q-21 0 -36 14q-14 15 -14 36q0 20 14 35q15 15 36 15t36 -15q14 -15 14 -35q0 -21 -14 -36q-15 -14 -36 -14zM940 18q-21 0 -36 14q-14 15 -14 36q0 20 14 35q15 15 36 15t36 -15q14 -15 14 -35q0 -21 -14 -36q-15 -14 -36 -14zM762 -31q-21 0 -36 15q-14 14 -14 35
q0 20 14 35q15 15 36 15t36 -15q14 -15 14 -35q0 -21 -14 -35q-15 -15 -36 -15z" />
    <glyph glyph-name="dotbelowcomb" unicode="&#x323;" 
d="M422 -141h184v-234h-184v234zM120 803q15 -15 15 -35q0 -21 -15 -36q-14 -14 -35 -14t-35 14q-15 15 -15 36q0 20 15 35q14 15 35 15t35 -15zM980 803q14 -15 14 -35q0 -21 -14 -36q-15 -14 -36 -14t-36 14q-14 15 -14 36q0 20 14 35q15 15 36 15t36 -15zM222 973
q14 -15 14 -35q0 -21 -14 -36q-15 -14 -36 -14t-36 14q-14 15 -14 36q0 20 14 35q15 15 36 15t36 -15zM878 973q15 -15 15 -35q0 -21 -15 -36q-14 -14 -35 -14t-35 14q-15 15 -15 36q0 20 15 35q14 15 35 15t35 -15zM374 1085q14 -15 14 -35q0 -21 -14 -36q-15 -14 -36 -14
t-36 14q-14 15 -14 36q0 20 14 35q15 15 36 15t36 -15zM728 1085q14 -15 14 -35q0 -21 -14 -36q-15 -14 -36 -14t-36 14q-14 15 -14 36q0 20 14 35q15 15 36 15t36 -15zM550 1134q14 -15 14 -35q0 -21 -14 -35q-15 -15 -36 -15t-36 15q-14 14 -14 35q0 20 14 35q15 15 36 15
t36 -15zM50 509q-21 0 -36 15q-14 14 -14 35q0 20 14 35q15 15 36 15t36 -15q14 -15 14 -35q0 -21 -14 -35q-15 -15 -36 -15zM978 509q-21 0 -36 15q-14 14 -14 35q0 20 14 35q15 15 36 15t36 -15q14 -15 14 -35q0 -21 -14 -35q-15 -15 -36 -15zM85 300q-21 0 -35 14
q-15 15 -15 36q0 20 15 35q14 15 35 15t35 -15q15 -15 15 -35q0 -21 -15 -36q-14 -14 -35 -14zM944 300q-21 0 -36 14q-14 15 -14 36q0 20 14 35q15 15 36 15t36 -15q14 -15 14 -35q0 -21 -14 -36q-15 -14 -36 -14zM186 130q-21 0 -36 14q-14 15 -14 36q0 20 14 35
q15 15 36 15t36 -15q14 -15 14 -35q0 -21 -14 -36q-15 -14 -36 -14zM843 130q-21 0 -35 14q-15 15 -15 36q0 20 15 35q14 15 35 15t35 -15q15 -15 15 -35q0 -21 -15 -36q-14 -14 -35 -14zM338 18q-21 0 -36 14q-14 15 -14 36q0 20 14 35q15 15 36 15t36 -15q14 -15 14 -35
q0 -21 -14 -36q-15 -14 -36 -14zM692 18q-21 0 -36 14q-14 15 -14 36q0 20 14 35q15 15 36 15t36 -15q14 -15 14 -35q0 -21 -14 -36q-15 -14 -36 -14zM514 -31q-21 0 -36 15q-14 14 -14 35q0 20 14 35q15 15 36 15t36 -15q14 -15 14 -35q0 -21 -14 -35q-15 -15 -36 -15z" />
    <glyph glyph-name="uni0324" unicode="&#x324;" 
d="M608 -173h203v-202h-203v202zM217 -173h203v-202h-203v202zM120 803q15 -15 15 -35q0 -21 -15 -36q-14 -14 -35 -14t-35 14q-15 15 -15 36q0 20 15 35q14 15 35 15t35 -15zM980 803q14 -15 14 -35q0 -21 -14 -36q-15 -14 -36 -14t-36 14q-14 15 -14 36q0 20 14 35
q15 15 36 15t36 -15zM222 973q14 -15 14 -35q0 -21 -14 -36q-15 -14 -36 -14t-36 14q-14 15 -14 36q0 20 14 35q15 15 36 15t36 -15zM878 973q15 -15 15 -35q0 -21 -15 -36q-14 -14 -35 -14t-35 14q-15 15 -15 36q0 20 15 35q14 15 35 15t35 -15zM374 1085q14 -15 14 -35
q0 -21 -14 -36q-15 -14 -36 -14t-36 14q-14 15 -14 36q0 20 14 35q15 15 36 15t36 -15zM728 1085q14 -15 14 -35q0 -21 -14 -36q-15 -14 -36 -14t-36 14q-14 15 -14 36q0 20 14 35q15 15 36 15t36 -15zM550 1134q14 -15 14 -35q0 -21 -14 -35q-15 -15 -36 -15t-36 15
q-14 14 -14 35q0 20 14 35q15 15 36 15t36 -15zM50 509q-21 0 -36 15q-14 14 -14 35q0 20 14 35q15 15 36 15t36 -15q14 -15 14 -35q0 -21 -14 -35q-15 -15 -36 -15zM978 509q-21 0 -36 15q-14 14 -14 35q0 20 14 35q15 15 36 15t36 -15q14 -15 14 -35q0 -21 -14 -35
q-15 -15 -36 -15zM85 300q-21 0 -35 14q-15 15 -15 36q0 20 15 35q14 15 35 15t35 -15q15 -15 15 -35q0 -21 -15 -36q-14 -14 -35 -14zM944 300q-21 0 -36 14q-14 15 -14 36q0 20 14 35q15 15 36 15t36 -15q14 -15 14 -35q0 -21 -14 -36q-15 -14 -36 -14zM186 130
q-21 0 -36 14q-14 15 -14 36q0 20 14 35q15 15 36 15t36 -15q14 -15 14 -35q0 -21 -14 -36q-15 -14 -36 -14zM843 130q-21 0 -35 14q-15 15 -15 36q0 20 15 35q14 15 35 15t35 -15q15 -15 15 -35q0 -21 -15 -36q-14 -14 -35 -14zM338 18q-21 0 -36 14q-14 15 -14 36
q0 20 14 35q15 15 36 15t36 -15q14 -15 14 -35q0 -21 -14 -36q-15 -14 -36 -14zM692 18q-21 0 -36 14q-14 15 -14 36q0 20 14 35q15 15 36 15t36 -15q14 -15 14 -35q0 -21 -14 -36q-15 -14 -36 -14zM514 -31q-21 0 -36 15q-14 14 -14 35q0 20 14 35q15 15 36 15t36 -15
q14 -15 14 -35q0 -21 -14 -35q-15 -15 -36 -15z" />
    <glyph glyph-name="uni0325" unicode="&#x325;" 
d="M607 -278q0 38 -27 65t-66 27q-40 0 -66 -26q-27 -27 -27 -66q0 -40 27 -66q26 -27 66 -27q39 0 66 27t27 66zM728 -279q0 -90 -62 -153q-62 -62 -152 -62t-152 62q-62 63 -62 153q0 89 62 151t152 62t152 -62t62 -151zM120 803q15 -15 15 -35q0 -21 -15 -36
q-14 -14 -35 -14t-35 14q-15 15 -15 36q0 20 15 35q14 15 35 15t35 -15zM980 803q14 -15 14 -35q0 -21 -14 -36q-15 -14 -36 -14t-36 14q-14 15 -14 36q0 20 14 35q15 15 36 15t36 -15zM222 973q14 -15 14 -35q0 -21 -14 -36q-15 -14 -36 -14t-36 14q-14 15 -14 36
q0 20 14 35q15 15 36 15t36 -15zM878 973q15 -15 15 -35q0 -21 -15 -36q-14 -14 -35 -14t-35 14q-15 15 -15 36q0 20 15 35q14 15 35 15t35 -15zM374 1085q14 -15 14 -35q0 -21 -14 -36q-15 -14 -36 -14t-36 14q-14 15 -14 36q0 20 14 35q15 15 36 15t36 -15zM728 1085
q14 -15 14 -35q0 -21 -14 -36q-15 -14 -36 -14t-36 14q-14 15 -14 36q0 20 14 35q15 15 36 15t36 -15zM550 1134q14 -15 14 -35q0 -21 -14 -35q-15 -15 -36 -15t-36 15q-14 14 -14 35q0 20 14 35q15 15 36 15t36 -15zM50 509q-21 0 -36 15q-14 14 -14 35q0 20 14 35
q15 15 36 15t36 -15q14 -15 14 -35q0 -21 -14 -35q-15 -15 -36 -15zM978 509q-21 0 -36 15q-14 14 -14 35q0 20 14 35q15 15 36 15t36 -15q14 -15 14 -35q0 -21 -14 -35q-15 -15 -36 -15zM85 300q-21 0 -35 14q-15 15 -15 36q0 20 15 35q14 15 35 15t35 -15q15 -15 15 -35
q0 -21 -15 -36q-14 -14 -35 -14zM944 300q-21 0 -36 14q-14 15 -14 36q0 20 14 35q15 15 36 15t36 -15q14 -15 14 -35q0 -21 -14 -36q-15 -14 -36 -14zM186 130q-21 0 -36 14q-14 15 -14 36q0 20 14 35q15 15 36 15t36 -15q14 -15 14 -35q0 -21 -14 -36q-15 -14 -36 -14z
M843 130q-21 0 -35 14q-15 15 -15 36q0 20 15 35q14 15 35 15t35 -15q15 -15 15 -35q0 -21 -15 -36q-14 -14 -35 -14zM338 18q-21 0 -36 14q-14 15 -14 36q0 20 14 35q15 15 36 15t36 -15q14 -15 14 -35q0 -21 -14 -36q-15 -14 -36 -14zM692 18q-21 0 -36 14q-14 15 -14 36
q0 20 14 35q15 15 36 15t36 -15q14 -15 14 -35q0 -21 -14 -36q-15 -14 -36 -14zM514 -31q-21 0 -36 15q-14 14 -14 35q0 20 14 35q15 15 36 15t36 -15q14 -15 14 -35q0 -21 -14 -35q-15 -15 -36 -15z" />
    <glyph glyph-name="uni0326" unicode="&#x326;" 
d="M409 -172h211l-164 -320h-129zM120 803q15 -15 15 -35q0 -21 -15 -36q-14 -14 -35 -14t-35 14q-15 15 -15 36q0 20 15 35q14 15 35 15t35 -15zM980 803q14 -15 14 -35q0 -21 -14 -36q-15 -14 -36 -14t-36 14q-14 15 -14 36q0 20 14 35q15 15 36 15t36 -15zM222 973
q14 -15 14 -35q0 -21 -14 -36q-15 -14 -36 -14t-36 14q-14 15 -14 36q0 20 14 35q15 15 36 15t36 -15zM878 973q15 -15 15 -35q0 -21 -15 -36q-14 -14 -35 -14t-35 14q-15 15 -15 36q0 20 15 35q14 15 35 15t35 -15zM374 1085q14 -15 14 -35q0 -21 -14 -36q-15 -14 -36 -14
t-36 14q-14 15 -14 36q0 20 14 35q15 15 36 15t36 -15zM728 1085q14 -15 14 -35q0 -21 -14 -36q-15 -14 -36 -14t-36 14q-14 15 -14 36q0 20 14 35q15 15 36 15t36 -15zM550 1134q14 -15 14 -35q0 -21 -14 -35q-15 -15 -36 -15t-36 15q-14 14 -14 35q0 20 14 35q15 15 36 15
t36 -15zM50 509q-21 0 -36 15q-14 14 -14 35q0 20 14 35q15 15 36 15t36 -15q14 -15 14 -35q0 -21 -14 -35q-15 -15 -36 -15zM978 509q-21 0 -36 15q-14 14 -14 35q0 20 14 35q15 15 36 15t36 -15q14 -15 14 -35q0 -21 -14 -35q-15 -15 -36 -15zM85 300q-21 0 -35 14
q-15 15 -15 36q0 20 15 35q14 15 35 15t35 -15q15 -15 15 -35q0 -21 -15 -36q-14 -14 -35 -14zM944 300q-21 0 -36 14q-14 15 -14 36q0 20 14 35q15 15 36 15t36 -15q14 -15 14 -35q0 -21 -14 -36q-15 -14 -36 -14zM186 130q-21 0 -36 14q-14 15 -14 36q0 20 14 35
q15 15 36 15t36 -15q14 -15 14 -35q0 -21 -14 -36q-15 -14 -36 -14zM843 130q-21 0 -35 14q-15 15 -15 36q0 20 15 35q14 15 35 15t35 -15q15 -15 15 -35q0 -21 -15 -36q-14 -14 -35 -14zM338 18q-21 0 -36 14q-14 15 -14 36q0 20 14 35q15 15 36 15t36 -15q14 -15 14 -35
q0 -21 -14 -36q-15 -14 -36 -14zM692 18q-21 0 -36 14q-14 15 -14 36q0 20 14 35q15 15 36 15t36 -15q14 -15 14 -35q0 -21 -14 -36q-15 -14 -36 -14zM514 -31q-21 0 -36 15q-14 14 -14 35q0 20 14 35q15 15 36 15t36 -15q14 -15 14 -35q0 -21 -14 -35q-15 -15 -36 -15z" />
    <glyph glyph-name="uni0327" unicode="&#x327;" 
d="M574 -99q55 -62 82 -115q27 -52 27 -100q0 -88 -60 -134q-59 -46 -178 -46q-46 0 -89 6t-87 18v131q34 -16 71 -25q38 -7 84 -7q59 0 89 24t30 70q0 30 -21 73q-22 44 -67 105h119zM120 803q15 -15 15 -35q0 -21 -15 -36q-14 -14 -35 -14t-35 14q-15 15 -15 36
q0 20 15 35q14 15 35 15t35 -15zM980 803q14 -15 14 -35q0 -21 -14 -36q-15 -14 -36 -14t-36 14q-14 15 -14 36q0 20 14 35q15 15 36 15t36 -15zM222 973q14 -15 14 -35q0 -21 -14 -36q-15 -14 -36 -14t-36 14q-14 15 -14 36q0 20 14 35q15 15 36 15t36 -15zM878 973
q15 -15 15 -35q0 -21 -15 -36q-14 -14 -35 -14t-35 14q-15 15 -15 36q0 20 15 35q14 15 35 15t35 -15zM374 1085q14 -15 14 -35q0 -21 -14 -36q-15 -14 -36 -14t-36 14q-14 15 -14 36q0 20 14 35q15 15 36 15t36 -15zM728 1085q14 -15 14 -35q0 -21 -14 -36q-15 -14 -36 -14
t-36 14q-14 15 -14 36q0 20 14 35q15 15 36 15t36 -15zM550 1134q14 -15 14 -35q0 -21 -14 -35q-15 -15 -36 -15t-36 15q-14 14 -14 35q0 20 14 35q15 15 36 15t36 -15zM50 509q-21 0 -36 15q-14 14 -14 35q0 20 14 35q15 15 36 15t36 -15q14 -15 14 -35q0 -21 -14 -35
q-15 -15 -36 -15zM978 509q-21 0 -36 15q-14 14 -14 35q0 20 14 35q15 15 36 15t36 -15q14 -15 14 -35q0 -21 -14 -35q-15 -15 -36 -15zM85 300q-21 0 -35 14q-15 15 -15 36q0 20 15 35q14 15 35 15t35 -15q15 -15 15 -35q0 -21 -15 -36q-14 -14 -35 -14zM944 300
q-21 0 -36 14q-14 15 -14 36q0 20 14 35q15 15 36 15t36 -15q14 -15 14 -35q0 -21 -14 -36q-15 -14 -36 -14zM186 130q-21 0 -36 14q-14 15 -14 36q0 20 14 35q15 15 36 15t36 -15q14 -15 14 -35q0 -21 -14 -36q-15 -14 -36 -14zM843 130q-21 0 -35 14q-15 15 -15 36
q0 20 15 35q14 15 35 15t35 -15q15 -15 15 -35q0 -21 -15 -36q-14 -14 -35 -14zM338 18q-21 0 -36 14q-14 15 -14 36q0 20 14 35q15 15 36 15t36 -15q14 -15 14 -35q0 -21 -14 -36q-15 -14 -36 -14zM692 18q-21 0 -36 14q-14 15 -14 36q0 20 14 35q15 15 36 15t36 -15
q14 -15 14 -35q0 -21 -14 -36q-15 -14 -36 -14zM514 -31q-21 0 -36 15q-14 14 -14 35q0 20 14 35q15 15 36 15t36 -15q14 -15 14 -35q0 -21 -14 -35q-15 -15 -36 -15z" />
    <glyph glyph-name="uni0328" unicode="&#x328;" 
d="M573 -99q-45 -60 -67 -105q-21 -43 -21 -73q0 -46 30 -70q31 -24 89 -24q47 0 84 7q37 8 71 25v-131q-42 -12 -87 -18q-42 -6 -89 -6q-118 0 -178 46t-60 134q0 48 27 100q27 54 82 115h119zM943 818q21 0 35 -15q15 -15 15 -35q0 -21 -15 -36q-14 -14 -35 -14t-35 14
q-15 15 -15 36q0 20 15 35q14 15 35 15zM84 818q21 0 36 -15q14 -15 14 -35q0 -21 -14 -36q-15 -14 -36 -14t-36 14q-14 15 -14 36q0 20 14 35q15 15 36 15zM842 988q21 0 36 -15q14 -15 14 -35q0 -21 -14 -36q-15 -14 -36 -14t-36 14q-14 15 -14 36q0 20 14 35q15 15 36 15
zM185 988q21 0 35 -15q15 -15 15 -35q0 -21 -15 -36q-14 -14 -35 -14t-35 14q-15 15 -15 36q0 20 15 35q14 15 35 15zM690 1100q21 0 36 -15q14 -15 14 -35q0 -21 -14 -36q-15 -14 -36 -14t-36 14q-14 15 -14 36q0 20 14 35q15 15 36 15zM336 1100q21 0 36 -15
q14 -15 14 -35q0 -21 -14 -36q-15 -14 -36 -14t-36 14q-14 15 -14 36q0 20 14 35q15 15 36 15zM514 1149q21 0 36 -15q14 -15 14 -35q0 -21 -14 -35q-15 -15 -36 -15t-36 15q-14 14 -14 35q0 20 14 35q15 15 36 15zM942 524q-14 14 -14 35q0 20 14 35q15 15 36 15t36 -15
q14 -15 14 -35q0 -21 -14 -35q-15 -15 -36 -15t-36 15zM14 524q-14 14 -14 35q0 20 14 35q15 15 36 15t36 -15q14 -15 14 -35q0 -21 -14 -35q-15 -15 -36 -15t-36 15zM908 314q-15 15 -15 36q0 20 15 35q14 15 35 15t35 -15q15 -15 15 -35q0 -21 -15 -36q-14 -14 -35 -14
t-35 14zM48 314q-14 15 -14 36q0 20 14 35q15 15 36 15t36 -15q14 -15 14 -35q0 -21 -14 -36q-15 -14 -36 -14t-36 14zM806 144q-14 15 -14 36q0 20 14 35q15 15 36 15t36 -15q14 -15 14 -35q0 -21 -14 -36q-15 -14 -36 -14t-36 14zM150 144q-15 15 -15 36q0 20 15 35
q14 15 35 15t35 -15q15 -15 15 -35q0 -21 -15 -36q-14 -14 -35 -14t-35 14zM654 32q-14 15 -14 36q0 20 14 35q15 15 36 15t36 -15q14 -15 14 -35q0 -21 -14 -36q-15 -14 -36 -14t-36 14zM300 32q-14 15 -14 36q0 20 14 35q15 15 36 15t36 -15q14 -15 14 -35q0 -21 -14 -36
q-15 -14 -36 -14t-36 14zM478 -16q-14 14 -14 35q0 20 14 35q15 15 36 15t36 -15q14 -15 14 -35q0 -21 -14 -35q-15 -15 -36 -15t-36 15z" />
    <glyph glyph-name="uni0329" unicode="&#x329;" 
d="M582 -96v-396h-136v396h136zM120 803q15 -15 15 -35q0 -21 -15 -36q-14 -14 -35 -14t-35 14q-15 15 -15 36q0 20 15 35q14 15 35 15t35 -15zM980 803q14 -15 14 -35q0 -21 -14 -36q-15 -14 -36 -14t-36 14q-14 15 -14 36q0 20 14 35q15 15 36 15t36 -15zM222 973
q14 -15 14 -35q0 -21 -14 -36q-15 -14 -36 -14t-36 14q-14 15 -14 36q0 20 14 35q15 15 36 15t36 -15zM878 973q15 -15 15 -35q0 -21 -15 -36q-14 -14 -35 -14t-35 14q-15 15 -15 36q0 20 15 35q14 15 35 15t35 -15zM374 1085q14 -15 14 -35q0 -21 -14 -36q-15 -14 -36 -14
t-36 14q-14 15 -14 36q0 20 14 35q15 15 36 15t36 -15zM728 1085q14 -15 14 -35q0 -21 -14 -36q-15 -14 -36 -14t-36 14q-14 15 -14 36q0 20 14 35q15 15 36 15t36 -15zM550 1134q14 -15 14 -35q0 -21 -14 -35q-15 -15 -36 -15t-36 15q-14 14 -14 35q0 20 14 35q15 15 36 15
t36 -15zM50 509q-21 0 -36 15q-14 14 -14 35q0 20 14 35q15 15 36 15t36 -15q14 -15 14 -35q0 -21 -14 -35q-15 -15 -36 -15zM978 509q-21 0 -36 15q-14 14 -14 35q0 20 14 35q15 15 36 15t36 -15q14 -15 14 -35q0 -21 -14 -35q-15 -15 -36 -15zM85 300q-21 0 -35 14
q-15 15 -15 36q0 20 15 35q14 15 35 15t35 -15q15 -15 15 -35q0 -21 -15 -36q-14 -14 -35 -14zM944 300q-21 0 -36 14q-14 15 -14 36q0 20 14 35q15 15 36 15t36 -15q14 -15 14 -35q0 -21 -14 -36q-15 -14 -36 -14zM186 130q-21 0 -36 14q-14 15 -14 36q0 20 14 35
q15 15 36 15t36 -15q14 -15 14 -35q0 -21 -14 -36q-15 -14 -36 -14zM843 130q-21 0 -35 14q-15 15 -15 36q0 20 15 35q14 15 35 15t35 -15q15 -15 15 -35q0 -21 -15 -36q-14 -14 -35 -14zM338 18q-21 0 -36 14q-14 15 -14 36q0 20 14 35q15 15 36 15t36 -15q14 -15 14 -35
q0 -21 -14 -36q-15 -14 -36 -14zM692 18q-21 0 -36 14q-14 15 -14 36q0 20 14 35q15 15 36 15t36 -15q14 -15 14 -35q0 -21 -14 -36q-15 -14 -36 -14zM514 -31q-21 0 -36 15q-14 14 -14 35q0 20 14 35q15 15 36 15t36 -15q14 -15 14 -35q0 -21 -14 -35q-15 -15 -36 -15z" />
    <glyph glyph-name="uni032A" unicode="&#x32a;" 
d="M790 -102v-330h-137v194h-277v-194h-137v330h551zM120 803q15 -15 15 -35q0 -21 -15 -36q-14 -14 -35 -14t-35 14q-15 15 -15 36q0 20 15 35q14 15 35 15t35 -15zM980 803q14 -15 14 -35q0 -21 -14 -36q-15 -14 -36 -14t-36 14q-14 15 -14 36q0 20 14 35q15 15 36 15
t36 -15zM222 973q14 -15 14 -35q0 -21 -14 -36q-15 -14 -36 -14t-36 14q-14 15 -14 36q0 20 14 35q15 15 36 15t36 -15zM878 973q15 -15 15 -35q0 -21 -15 -36q-14 -14 -35 -14t-35 14q-15 15 -15 36q0 20 15 35q14 15 35 15t35 -15zM374 1085q14 -15 14 -35q0 -21 -14 -36
q-15 -14 -36 -14t-36 14q-14 15 -14 36q0 20 14 35q15 15 36 15t36 -15zM728 1085q14 -15 14 -35q0 -21 -14 -36q-15 -14 -36 -14t-36 14q-14 15 -14 36q0 20 14 35q15 15 36 15t36 -15zM550 1134q14 -15 14 -35q0 -21 -14 -35q-15 -15 -36 -15t-36 15q-14 14 -14 35
q0 20 14 35q15 15 36 15t36 -15zM50 509q-21 0 -36 15q-14 14 -14 35q0 20 14 35q15 15 36 15t36 -15q14 -15 14 -35q0 -21 -14 -35q-15 -15 -36 -15zM978 509q-21 0 -36 15q-14 14 -14 35q0 20 14 35q15 15 36 15t36 -15q14 -15 14 -35q0 -21 -14 -35q-15 -15 -36 -15z
M85 300q-21 0 -35 14q-15 15 -15 36q0 20 15 35q14 15 35 15t35 -15q15 -15 15 -35q0 -21 -15 -36q-14 -14 -35 -14zM944 300q-21 0 -36 14q-14 15 -14 36q0 20 14 35q15 15 36 15t36 -15q14 -15 14 -35q0 -21 -14 -36q-15 -14 -36 -14zM186 130q-21 0 -36 14q-14 15 -14 36
q0 20 14 35q15 15 36 15t36 -15q14 -15 14 -35q0 -21 -14 -36q-15 -14 -36 -14zM843 130q-21 0 -35 14q-15 15 -15 36q0 20 15 35q14 15 35 15t35 -15q15 -15 15 -35q0 -21 -15 -36q-14 -14 -35 -14zM338 18q-21 0 -36 14q-14 15 -14 36q0 20 14 35q15 15 36 15t36 -15
q14 -15 14 -35q0 -21 -14 -36q-15 -14 -36 -14zM692 18q-21 0 -36 14q-14 15 -14 36q0 20 14 35q15 15 36 15t36 -15q14 -15 14 -35q0 -21 -14 -36q-15 -14 -36 -14zM514 -31q-21 0 -36 15q-14 14 -14 35q0 20 14 35q15 15 36 15t36 -15q14 -15 14 -35q0 -21 -14 -35
q-15 -15 -36 -15z" />
    <glyph glyph-name="uni032B" unicode="&#x32b;" 
d="M515 -373q-60 -82 -176 -82q-217 0 -235 282v5h117q15 -150 118 -150q101 0 116 150h118q12 -148 117 -150q102 0 117 150h118q-15 -286 -235 -287q-115 0 -175 82zM120 803q15 -15 15 -35q0 -21 -15 -36q-14 -14 -35 -14t-35 14q-15 15 -15 36q0 20 15 35q14 15 35 15
t35 -15zM980 803q14 -15 14 -35q0 -21 -14 -36q-15 -14 -36 -14t-36 14q-14 15 -14 36q0 20 14 35q15 15 36 15t36 -15zM222 973q14 -15 14 -35q0 -21 -14 -36q-15 -14 -36 -14t-36 14q-14 15 -14 36q0 20 14 35q15 15 36 15t36 -15zM878 973q15 -15 15 -35q0 -21 -15 -36
q-14 -14 -35 -14t-35 14q-15 15 -15 36q0 20 15 35q14 15 35 15t35 -15zM374 1085q14 -15 14 -35q0 -21 -14 -36q-15 -14 -36 -14t-36 14q-14 15 -14 36q0 20 14 35q15 15 36 15t36 -15zM728 1085q14 -15 14 -35q0 -21 -14 -36q-15 -14 -36 -14t-36 14q-14 15 -14 36
q0 20 14 35q15 15 36 15t36 -15zM550 1134q14 -15 14 -35q0 -21 -14 -35q-15 -15 -36 -15t-36 15q-14 14 -14 35q0 20 14 35q15 15 36 15t36 -15zM50 509q-21 0 -36 15q-14 14 -14 35q0 20 14 35q15 15 36 15t36 -15q14 -15 14 -35q0 -21 -14 -35q-15 -15 -36 -15zM978 509
q-21 0 -36 15q-14 14 -14 35q0 20 14 35q15 15 36 15t36 -15q14 -15 14 -35q0 -21 -14 -35q-15 -15 -36 -15zM85 300q-21 0 -35 14q-15 15 -15 36q0 20 15 35q14 15 35 15t35 -15q15 -15 15 -35q0 -21 -15 -36q-14 -14 -35 -14zM944 300q-21 0 -36 14q-14 15 -14 36
q0 20 14 35q15 15 36 15t36 -15q14 -15 14 -35q0 -21 -14 -36q-15 -14 -36 -14zM186 130q-21 0 -36 14q-14 15 -14 36q0 20 14 35q15 15 36 15t36 -15q14 -15 14 -35q0 -21 -14 -36q-15 -14 -36 -14zM843 130q-21 0 -35 14q-15 15 -15 36q0 20 15 35q14 15 35 15t35 -15
q15 -15 15 -35q0 -21 -15 -36q-14 -14 -35 -14zM338 18q-21 0 -36 14q-14 15 -14 36q0 20 14 35q15 15 36 15t36 -15q14 -15 14 -35q0 -21 -14 -36q-15 -14 -36 -14zM692 18q-21 0 -36 14q-14 15 -14 36q0 20 14 35q15 15 36 15t36 -15q14 -15 14 -35q0 -21 -14 -36
q-15 -14 -36 -14zM514 -31q-21 0 -36 15q-14 14 -14 35q0 20 14 35q15 15 36 15t36 -15q14 -15 14 -35q0 -21 -14 -35q-15 -15 -36 -15z" />
    <glyph glyph-name="uni032C" unicode="&#x32c;" 
d="M440 -492l-245 376h139l180 -245l180 245h139l-245 -376h-148zM120 803q15 -15 15 -35q0 -21 -15 -36q-14 -14 -35 -14t-35 14q-15 15 -15 36q0 20 15 35q14 15 35 15t35 -15zM980 803q14 -15 14 -35q0 -21 -14 -36q-15 -14 -36 -14t-36 14q-14 15 -14 36q0 20 14 35
q15 15 36 15t36 -15zM222 973q14 -15 14 -35q0 -21 -14 -36q-15 -14 -36 -14t-36 14q-14 15 -14 36q0 20 14 35q15 15 36 15t36 -15zM878 973q15 -15 15 -35q0 -21 -15 -36q-14 -14 -35 -14t-35 14q-15 15 -15 36q0 20 15 35q14 15 35 15t35 -15zM374 1085q14 -15 14 -35
q0 -21 -14 -36q-15 -14 -36 -14t-36 14q-14 15 -14 36q0 20 14 35q15 15 36 15t36 -15zM728 1085q14 -15 14 -35q0 -21 -14 -36q-15 -14 -36 -14t-36 14q-14 15 -14 36q0 20 14 35q15 15 36 15t36 -15zM550 1134q14 -15 14 -35q0 -21 -14 -35q-15 -15 -36 -15t-36 15
q-14 14 -14 35q0 20 14 35q15 15 36 15t36 -15zM50 509q-21 0 -36 15q-14 14 -14 35q0 20 14 35q15 15 36 15t36 -15q14 -15 14 -35q0 -21 -14 -35q-15 -15 -36 -15zM978 509q-21 0 -36 15q-14 14 -14 35q0 20 14 35q15 15 36 15t36 -15q14 -15 14 -35q0 -21 -14 -35
q-15 -15 -36 -15zM85 300q-21 0 -35 14q-15 15 -15 36q0 20 15 35q14 15 35 15t35 -15q15 -15 15 -35q0 -21 -15 -36q-14 -14 -35 -14zM944 300q-21 0 -36 14q-14 15 -14 36q0 20 14 35q15 15 36 15t36 -15q14 -15 14 -35q0 -21 -14 -36q-15 -14 -36 -14zM186 130
q-21 0 -36 14q-14 15 -14 36q0 20 14 35q15 15 36 15t36 -15q14 -15 14 -35q0 -21 -14 -36q-15 -14 -36 -14zM843 130q-21 0 -35 14q-15 15 -15 36q0 20 15 35q14 15 35 15t35 -15q15 -15 15 -35q0 -21 -15 -36q-14 -14 -35 -14zM338 18q-21 0 -36 14q-14 15 -14 36
q0 20 14 35q15 15 36 15t36 -15q14 -15 14 -35q0 -21 -14 -36q-15 -14 -36 -14zM692 18q-21 0 -36 14q-14 15 -14 36q0 20 14 35q15 15 36 15t36 -15q14 -15 14 -35q0 -21 -14 -36q-15 -14 -36 -14zM514 -31q-21 0 -36 15q-14 14 -14 35q0 20 14 35q15 15 36 15t36 -15
q14 -15 14 -35q0 -21 -14 -35q-15 -15 -36 -15z" />
    <glyph glyph-name="uni032D" unicode="&#x32d;" 
d="M440 -116h148l245 -376h-139l-180 245l-180 -245h-139zM120 803q15 -15 15 -35q0 -21 -15 -36q-14 -14 -35 -14t-35 14q-15 15 -15 36q0 20 15 35q14 15 35 15t35 -15zM980 803q14 -15 14 -35q0 -21 -14 -36q-15 -14 -36 -14t-36 14q-14 15 -14 36q0 20 14 35
q15 15 36 15t36 -15zM222 973q14 -15 14 -35q0 -21 -14 -36q-15 -14 -36 -14t-36 14q-14 15 -14 36q0 20 14 35q15 15 36 15t36 -15zM878 973q15 -15 15 -35q0 -21 -15 -36q-14 -14 -35 -14t-35 14q-15 15 -15 36q0 20 15 35q14 15 35 15t35 -15zM374 1085q14 -15 14 -35
q0 -21 -14 -36q-15 -14 -36 -14t-36 14q-14 15 -14 36q0 20 14 35q15 15 36 15t36 -15zM728 1085q14 -15 14 -35q0 -21 -14 -36q-15 -14 -36 -14t-36 14q-14 15 -14 36q0 20 14 35q15 15 36 15t36 -15zM550 1134q14 -15 14 -35q0 -21 -14 -35q-15 -15 -36 -15t-36 15
q-14 14 -14 35q0 20 14 35q15 15 36 15t36 -15zM50 509q-21 0 -36 15q-14 14 -14 35q0 20 14 35q15 15 36 15t36 -15q14 -15 14 -35q0 -21 -14 -35q-15 -15 -36 -15zM978 509q-21 0 -36 15q-14 14 -14 35q0 20 14 35q15 15 36 15t36 -15q14 -15 14 -35q0 -21 -14 -35
q-15 -15 -36 -15zM85 300q-21 0 -35 14q-15 15 -15 36q0 20 15 35q14 15 35 15t35 -15q15 -15 15 -35q0 -21 -15 -36q-14 -14 -35 -14zM944 300q-21 0 -36 14q-14 15 -14 36q0 20 14 35q15 15 36 15t36 -15q14 -15 14 -35q0 -21 -14 -36q-15 -14 -36 -14zM186 130
q-21 0 -36 14q-14 15 -14 36q0 20 14 35q15 15 36 15t36 -15q14 -15 14 -35q0 -21 -14 -36q-15 -14 -36 -14zM843 130q-21 0 -35 14q-15 15 -15 36q0 20 15 35q14 15 35 15t35 -15q15 -15 15 -35q0 -21 -15 -36q-14 -14 -35 -14zM338 18q-21 0 -36 14q-14 15 -14 36
q0 20 14 35q15 15 36 15t36 -15q14 -15 14 -35q0 -21 -14 -36q-15 -14 -36 -14zM692 18q-21 0 -36 14q-14 15 -14 36q0 20 14 35q15 15 36 15t36 -15q14 -15 14 -35q0 -21 -14 -36q-15 -14 -36 -14zM514 -31q-21 0 -36 15q-14 14 -14 35q0 20 14 35q15 15 36 15t36 -15
q14 -15 14 -35q0 -21 -14 -35q-15 -15 -36 -15z" />
    <glyph glyph-name="uni032E" unicode="&#x32e;" 
d="M201 -168h118q11 -75 59 -112q49 -38 136 -38q86 0 134 37t61 113h118q-10 -143 -89 -215q-78 -72 -224 -72q-145 0 -224 72t-89 215zM120 803q15 -15 15 -35q0 -21 -15 -36q-14 -14 -35 -14t-35 14q-15 15 -15 36q0 20 15 35q14 15 35 15t35 -15zM980 803q14 -15 14 -35
q0 -21 -14 -36q-15 -14 -36 -14t-36 14q-14 15 -14 36q0 20 14 35q15 15 36 15t36 -15zM222 973q14 -15 14 -35q0 -21 -14 -36q-15 -14 -36 -14t-36 14q-14 15 -14 36q0 20 14 35q15 15 36 15t36 -15zM878 973q15 -15 15 -35q0 -21 -15 -36q-14 -14 -35 -14t-35 14
q-15 15 -15 36q0 20 15 35q14 15 35 15t35 -15zM374 1085q14 -15 14 -35q0 -21 -14 -36q-15 -14 -36 -14t-36 14q-14 15 -14 36q0 20 14 35q15 15 36 15t36 -15zM728 1085q14 -15 14 -35q0 -21 -14 -36q-15 -14 -36 -14t-36 14q-14 15 -14 36q0 20 14 35q15 15 36 15t36 -15
zM550 1134q14 -15 14 -35q0 -21 -14 -35q-15 -15 -36 -15t-36 15q-14 14 -14 35q0 20 14 35q15 15 36 15t36 -15zM50 509q-21 0 -36 15q-14 14 -14 35q0 20 14 35q15 15 36 15t36 -15q14 -15 14 -35q0 -21 -14 -35q-15 -15 -36 -15zM978 509q-21 0 -36 15q-14 14 -14 35
q0 20 14 35q15 15 36 15t36 -15q14 -15 14 -35q0 -21 -14 -35q-15 -15 -36 -15zM85 300q-21 0 -35 14q-15 15 -15 36q0 20 15 35q14 15 35 15t35 -15q15 -15 15 -35q0 -21 -15 -36q-14 -14 -35 -14zM944 300q-21 0 -36 14q-14 15 -14 36q0 20 14 35q15 15 36 15t36 -15
q14 -15 14 -35q0 -21 -14 -36q-15 -14 -36 -14zM186 130q-21 0 -36 14q-14 15 -14 36q0 20 14 35q15 15 36 15t36 -15q14 -15 14 -35q0 -21 -14 -36q-15 -14 -36 -14zM843 130q-21 0 -35 14q-15 15 -15 36q0 20 15 35q14 15 35 15t35 -15q15 -15 15 -35q0 -21 -15 -36
q-14 -14 -35 -14zM338 18q-21 0 -36 14q-14 15 -14 36q0 20 14 35q15 15 36 15t36 -15q14 -15 14 -35q0 -21 -14 -36q-15 -14 -36 -14zM692 18q-21 0 -36 14q-14 15 -14 36q0 20 14 35q15 15 36 15t36 -15q14 -15 14 -35q0 -21 -14 -36q-15 -14 -36 -14zM514 -31
q-21 0 -36 15q-14 14 -14 35q0 20 14 35q15 15 36 15t36 -15q14 -15 14 -35q0 -21 -14 -35q-15 -15 -36 -15z" />
    <glyph glyph-name="uni032F" unicode="&#x32f;" 
d="M827 -458h-118q-11 76 -59 112q-49 38 -136 38q-85 0 -134 -37q-48 -37 -61 -113h-118q10 143 89 215t224 72q146 0 224 -72q79 -72 89 -215zM120 803q15 -15 15 -35q0 -21 -15 -36q-14 -14 -35 -14t-35 14q-15 15 -15 36q0 20 15 35q14 15 35 15t35 -15zM980 803
q14 -15 14 -35q0 -21 -14 -36q-15 -14 -36 -14t-36 14q-14 15 -14 36q0 20 14 35q15 15 36 15t36 -15zM222 973q14 -15 14 -35q0 -21 -14 -36q-15 -14 -36 -14t-36 14q-14 15 -14 36q0 20 14 35q15 15 36 15t36 -15zM878 973q15 -15 15 -35q0 -21 -15 -36q-14 -14 -35 -14
t-35 14q-15 15 -15 36q0 20 15 35q14 15 35 15t35 -15zM374 1085q14 -15 14 -35q0 -21 -14 -36q-15 -14 -36 -14t-36 14q-14 15 -14 36q0 20 14 35q15 15 36 15t36 -15zM728 1085q14 -15 14 -35q0 -21 -14 -36q-15 -14 -36 -14t-36 14q-14 15 -14 36q0 20 14 35q15 15 36 15
t36 -15zM550 1134q14 -15 14 -35q0 -21 -14 -35q-15 -15 -36 -15t-36 15q-14 14 -14 35q0 20 14 35q15 15 36 15t36 -15zM50 509q-21 0 -36 15q-14 14 -14 35q0 20 14 35q15 15 36 15t36 -15q14 -15 14 -35q0 -21 -14 -35q-15 -15 -36 -15zM978 509q-21 0 -36 15
q-14 14 -14 35q0 20 14 35q15 15 36 15t36 -15q14 -15 14 -35q0 -21 -14 -35q-15 -15 -36 -15zM85 300q-21 0 -35 14q-15 15 -15 36q0 20 15 35q14 15 35 15t35 -15q15 -15 15 -35q0 -21 -15 -36q-14 -14 -35 -14zM944 300q-21 0 -36 14q-14 15 -14 36q0 20 14 35
q15 15 36 15t36 -15q14 -15 14 -35q0 -21 -14 -36q-15 -14 -36 -14zM186 130q-21 0 -36 14q-14 15 -14 36q0 20 14 35q15 15 36 15t36 -15q14 -15 14 -35q0 -21 -14 -36q-15 -14 -36 -14zM843 130q-21 0 -35 14q-15 15 -15 36q0 20 15 35q14 15 35 15t35 -15q15 -15 15 -35
q0 -21 -15 -36q-14 -14 -35 -14zM338 18q-21 0 -36 14q-14 15 -14 36q0 20 14 35q15 15 36 15t36 -15q14 -15 14 -35q0 -21 -14 -36q-15 -14 -36 -14zM692 18q-21 0 -36 14q-14 15 -14 36q0 20 14 35q15 15 36 15t36 -15q14 -15 14 -35q0 -21 -14 -36q-15 -14 -36 -14z
M514 -31q-21 0 -36 15q-14 14 -14 35q0 20 14 35q15 15 36 15t36 -15q14 -15 14 -35q0 -21 -14 -35q-15 -15 -36 -15z" />
    <glyph glyph-name="uni0330" unicode="&#x330;" 
d="M510 -394l-57 55q-22 20 -39 29q-15 10 -29 10q-37 0 -56 -36q-18 -37 -20 -119h-125q2 135 53 209q51 73 142 73q38 0 70 -14t69 -47l57 -55q23 -20 39 -29q16 -10 29 -10q38 0 56 36q18 37 20 119h125q-2 -134 -53 -209q-50 -73 -142 -73q-37 0 -70 14q-31 14 -69 47z
M120 803q15 -15 15 -35q0 -21 -15 -36q-14 -14 -35 -14t-35 14q-15 15 -15 36q0 20 15 35q14 15 35 15t35 -15zM980 803q14 -15 14 -35q0 -21 -14 -36q-15 -14 -36 -14t-36 14q-14 15 -14 36q0 20 14 35q15 15 36 15t36 -15zM222 973q14 -15 14 -35q0 -21 -14 -36
q-15 -14 -36 -14t-36 14q-14 15 -14 36q0 20 14 35q15 15 36 15t36 -15zM878 973q15 -15 15 -35q0 -21 -15 -36q-14 -14 -35 -14t-35 14q-15 15 -15 36q0 20 15 35q14 15 35 15t35 -15zM374 1085q14 -15 14 -35q0 -21 -14 -36q-15 -14 -36 -14t-36 14q-14 15 -14 36
q0 20 14 35q15 15 36 15t36 -15zM728 1085q14 -15 14 -35q0 -21 -14 -36q-15 -14 -36 -14t-36 14q-14 15 -14 36q0 20 14 35q15 15 36 15t36 -15zM550 1134q14 -15 14 -35q0 -21 -14 -35q-15 -15 -36 -15t-36 15q-14 14 -14 35q0 20 14 35q15 15 36 15t36 -15zM50 509
q-21 0 -36 15q-14 14 -14 35q0 20 14 35q15 15 36 15t36 -15q14 -15 14 -35q0 -21 -14 -35q-15 -15 -36 -15zM978 509q-21 0 -36 15q-14 14 -14 35q0 20 14 35q15 15 36 15t36 -15q14 -15 14 -35q0 -21 -14 -35q-15 -15 -36 -15zM85 300q-21 0 -35 14q-15 15 -15 36
q0 20 15 35q14 15 35 15t35 -15q15 -15 15 -35q0 -21 -15 -36q-14 -14 -35 -14zM944 300q-21 0 -36 14q-14 15 -14 36q0 20 14 35q15 15 36 15t36 -15q14 -15 14 -35q0 -21 -14 -36q-15 -14 -36 -14zM186 130q-21 0 -36 14q-14 15 -14 36q0 20 14 35q15 15 36 15t36 -15
q14 -15 14 -35q0 -21 -14 -36q-15 -14 -36 -14zM843 130q-21 0 -35 14q-15 15 -15 36q0 20 15 35q14 15 35 15t35 -15q15 -15 15 -35q0 -21 -15 -36q-14 -14 -35 -14zM338 18q-21 0 -36 14q-14 15 -14 36q0 20 14 35q15 15 36 15t36 -15q14 -15 14 -35q0 -21 -14 -36
q-15 -14 -36 -14zM692 18q-21 0 -36 14q-14 15 -14 36q0 20 14 35q15 15 36 15t36 -15q14 -15 14 -35q0 -21 -14 -36q-15 -14 -36 -14zM514 -31q-21 0 -36 15q-14 14 -14 35q0 20 14 35q15 15 36 15t36 -15q14 -15 14 -35q0 -21 -14 -35q-15 -15 -36 -15z" />
    <glyph glyph-name="uni0331" unicode="&#x331;" 
d="M215 -172h598v-148h-598v148zM120 803q15 -15 15 -35q0 -21 -15 -36q-14 -14 -35 -14t-35 14q-15 15 -15 36q0 20 15 35q14 15 35 15t35 -15zM980 803q14 -15 14 -35q0 -21 -14 -36q-15 -14 -36 -14t-36 14q-14 15 -14 36q0 20 14 35q15 15 36 15t36 -15zM222 973
q14 -15 14 -35q0 -21 -14 -36q-15 -14 -36 -14t-36 14q-14 15 -14 36q0 20 14 35q15 15 36 15t36 -15zM878 973q15 -15 15 -35q0 -21 -15 -36q-14 -14 -35 -14t-35 14q-15 15 -15 36q0 20 15 35q14 15 35 15t35 -15zM374 1085q14 -15 14 -35q0 -21 -14 -36q-15 -14 -36 -14
t-36 14q-14 15 -14 36q0 20 14 35q15 15 36 15t36 -15zM728 1085q14 -15 14 -35q0 -21 -14 -36q-15 -14 -36 -14t-36 14q-14 15 -14 36q0 20 14 35q15 15 36 15t36 -15zM550 1134q14 -15 14 -35q0 -21 -14 -35q-15 -15 -36 -15t-36 15q-14 14 -14 35q0 20 14 35q15 15 36 15
t36 -15zM50 509q-21 0 -36 15q-14 14 -14 35q0 20 14 35q15 15 36 15t36 -15q14 -15 14 -35q0 -21 -14 -35q-15 -15 -36 -15zM978 509q-21 0 -36 15q-14 14 -14 35q0 20 14 35q15 15 36 15t36 -15q14 -15 14 -35q0 -21 -14 -35q-15 -15 -36 -15zM85 300q-21 0 -35 14
q-15 15 -15 36q0 20 15 35q14 15 35 15t35 -15q15 -15 15 -35q0 -21 -15 -36q-14 -14 -35 -14zM944 300q-21 0 -36 14q-14 15 -14 36q0 20 14 35q15 15 36 15t36 -15q14 -15 14 -35q0 -21 -14 -36q-15 -14 -36 -14zM186 130q-21 0 -36 14q-14 15 -14 36q0 20 14 35
q15 15 36 15t36 -15q14 -15 14 -35q0 -21 -14 -36q-15 -14 -36 -14zM843 130q-21 0 -35 14q-15 15 -15 36q0 20 15 35q14 15 35 15t35 -15q15 -15 15 -35q0 -21 -15 -36q-14 -14 -35 -14zM338 18q-21 0 -36 14q-14 15 -14 36q0 20 14 35q15 15 36 15t36 -15q14 -15 14 -35
q0 -21 -14 -36q-15 -14 -36 -14zM692 18q-21 0 -36 14q-14 15 -14 36q0 20 14 35q15 15 36 15t36 -15q14 -15 14 -35q0 -21 -14 -36q-15 -14 -36 -14zM514 -31q-21 0 -36 15q-14 14 -14 35q0 20 14 35q15 15 36 15t36 -15q14 -15 14 -35q0 -21 -14 -35q-15 -15 -36 -15z" />
    <glyph glyph-name="uni0332" unicode="&#x332;" 
d="M1046 -340v-143h-1064v143h1064zM120 803q15 -15 15 -35q0 -21 -15 -36q-14 -14 -35 -14t-35 14q-15 15 -15 36q0 20 15 35q14 15 35 15t35 -15zM980 803q14 -15 14 -35q0 -21 -14 -36q-15 -14 -36 -14t-36 14q-14 15 -14 36q0 20 14 35q15 15 36 15t36 -15zM222 973
q14 -15 14 -35q0 -21 -14 -36q-15 -14 -36 -14t-36 14q-14 15 -14 36q0 20 14 35q15 15 36 15t36 -15zM878 973q15 -15 15 -35q0 -21 -15 -36q-14 -14 -35 -14t-35 14q-15 15 -15 36q0 20 15 35q14 15 35 15t35 -15zM374 1085q14 -15 14 -35q0 -21 -14 -36q-15 -14 -36 -14
t-36 14q-14 15 -14 36q0 20 14 35q15 15 36 15t36 -15zM728 1085q14 -15 14 -35q0 -21 -14 -36q-15 -14 -36 -14t-36 14q-14 15 -14 36q0 20 14 35q15 15 36 15t36 -15zM550 1134q14 -15 14 -35q0 -21 -14 -35q-15 -15 -36 -15t-36 15q-14 14 -14 35q0 20 14 35q15 15 36 15
t36 -15zM50 509q-21 0 -36 15q-14 14 -14 35q0 20 14 35q15 15 36 15t36 -15q14 -15 14 -35q0 -21 -14 -35q-15 -15 -36 -15zM978 509q-21 0 -36 15q-14 14 -14 35q0 20 14 35q15 15 36 15t36 -15q14 -15 14 -35q0 -21 -14 -35q-15 -15 -36 -15zM85 300q-21 0 -35 14
q-15 15 -15 36q0 20 15 35q14 15 35 15t35 -15q15 -15 15 -35q0 -21 -15 -36q-14 -14 -35 -14zM944 300q-21 0 -36 14q-14 15 -14 36q0 20 14 35q15 15 36 15t36 -15q14 -15 14 -35q0 -21 -14 -36q-15 -14 -36 -14zM186 130q-21 0 -36 14q-14 15 -14 36q0 20 14 35
q15 15 36 15t36 -15q14 -15 14 -35q0 -21 -14 -36q-15 -14 -36 -14zM843 130q-21 0 -35 14q-15 15 -15 36q0 20 15 35q14 15 35 15t35 -15q15 -15 15 -35q0 -21 -15 -36q-14 -14 -35 -14zM338 18q-21 0 -36 14q-14 15 -14 36q0 20 14 35q15 15 36 15t36 -15q14 -15 14 -35
q0 -21 -14 -36q-15 -14 -36 -14zM692 18q-21 0 -36 14q-14 15 -14 36q0 20 14 35q15 15 36 15t36 -15q14 -15 14 -35q0 -21 -14 -36q-15 -14 -36 -14zM514 -31q-21 0 -36 15q-14 14 -14 35q0 20 14 35q15 15 36 15t36 -15q14 -15 14 -35q0 -21 -14 -35q-15 -15 -36 -15z" />
    <glyph glyph-name="uni0333" unicode="&#x333;" 
d="M120 803q15 -15 15 -35q0 -21 -15 -36q-14 -14 -35 -14t-35 14q-15 15 -15 36q0 20 15 35q14 15 35 15t35 -15zM980 803q14 -15 14 -35q0 -21 -14 -36q-15 -14 -36 -14t-36 14q-14 15 -14 36q0 20 14 35q15 15 36 15t36 -15zM222 973q14 -15 14 -35q0 -21 -14 -36
q-15 -14 -36 -14t-36 14q-14 15 -14 36q0 20 14 35q15 15 36 15t36 -15zM878 973q15 -15 15 -35q0 -21 -15 -36q-14 -14 -35 -14t-35 14q-15 15 -15 36q0 20 15 35q14 15 35 15t35 -15zM374 1085q14 -15 14 -35q0 -21 -14 -36q-15 -14 -36 -14t-36 14q-14 15 -14 36
q0 20 14 35q15 15 36 15t36 -15zM728 1085q14 -15 14 -35q0 -21 -14 -36q-15 -14 -36 -14t-36 14q-14 15 -14 36q0 20 14 35q15 15 36 15t36 -15zM550 1134q14 -15 14 -35q0 -21 -14 -35q-15 -15 -36 -15t-36 15q-14 14 -14 35q0 20 14 35q15 15 36 15t36 -15zM50 509
q-21 0 -36 15q-14 14 -14 35q0 20 14 35q15 15 36 15t36 -15q14 -15 14 -35q0 -21 -14 -35q-15 -15 -36 -15zM978 509q-21 0 -36 15q-14 14 -14 35q0 20 14 35q15 15 36 15t36 -15q14 -15 14 -35q0 -21 -14 -35q-15 -15 -36 -15zM85 300q-21 0 -35 14q-15 15 -15 36
q0 20 15 35q14 15 35 15t35 -15q15 -15 15 -35q0 -21 -15 -36q-14 -14 -35 -14zM944 300q-21 0 -36 14q-14 15 -14 36q0 20 14 35q15 15 36 15t36 -15q14 -15 14 -35q0 -21 -14 -36q-15 -14 -36 -14zM186 130q-21 0 -36 14q-14 15 -14 36q0 20 14 35q15 15 36 15t36 -15
q14 -15 14 -35q0 -21 -14 -36q-15 -14 -36 -14zM843 130q-21 0 -35 14q-15 15 -15 36q0 20 15 35q14 15 35 15t35 -15q15 -15 15 -35q0 -21 -15 -36q-14 -14 -35 -14zM338 18q-21 0 -36 14q-14 15 -14 36q0 20 14 35q15 15 36 15t36 -15q14 -15 14 -35q0 -21 -14 -36
q-15 -14 -36 -14zM692 18q-21 0 -36 14q-14 15 -14 36q0 20 14 35q15 15 36 15t36 -15q14 -15 14 -35q0 -21 -14 -36q-15 -14 -36 -14zM514 -31q-21 0 -36 15q-14 14 -14 35q0 20 14 35q15 15 36 15t36 -15q14 -15 14 -35q0 -21 -14 -35q-15 -15 -36 -15zM1046 -85v-143
h-1064v143h1064zM1046 -340v-143h-1064v143h1064z" />
    <glyph glyph-name="uni0334" unicode="&#x334;" 
d="M120 803q15 -15 15 -35q0 -21 -15 -36q-14 -14 -35 -14t-35 14q-15 15 -15 36q0 20 15 35q14 15 35 15t35 -15zM980 803q14 -15 14 -35q0 -21 -14 -36q-15 -14 -36 -14t-36 14q-14 15 -14 36q0 20 14 35q15 15 36 15t36 -15zM222 973q14 -15 14 -35q0 -21 -14 -36
q-15 -14 -36 -14t-36 14q-14 15 -14 36q0 20 14 35q15 15 36 15t36 -15zM878 973q15 -15 15 -35q0 -21 -15 -36q-14 -14 -35 -14t-35 14q-15 15 -15 36q0 20 15 35q14 15 35 15t35 -15zM374 1085q14 -15 14 -35q0 -21 -14 -36q-15 -14 -36 -14t-36 14q-14 15 -14 36
q0 20 14 35q15 15 36 15t36 -15zM728 1085q14 -15 14 -35q0 -21 -14 -36q-15 -14 -36 -14t-36 14q-14 15 -14 36q0 20 14 35q15 15 36 15t36 -15zM550 1134q14 -15 14 -35q0 -21 -14 -35q-15 -15 -36 -15t-36 15q-14 14 -14 35q0 20 14 35q15 15 36 15t36 -15zM85 300
q-21 0 -35 14q-15 15 -15 36q0 20 15 35q14 15 35 15t35 -15q15 -15 15 -35q0 -21 -15 -36q-14 -14 -35 -14zM944 300q-21 0 -36 14q-14 15 -14 36q0 20 14 35q15 15 36 15t36 -15q14 -15 14 -35q0 -21 -14 -36q-15 -14 -36 -14zM186 130q-21 0 -36 14q-14 15 -14 36
q0 20 14 35q15 15 36 15t36 -15q14 -15 14 -35q0 -21 -14 -36q-15 -14 -36 -14zM843 130q-21 0 -35 14q-15 15 -15 36q0 20 15 35q14 15 35 15t35 -15q15 -15 15 -35q0 -21 -15 -36q-14 -14 -35 -14zM338 18q-21 0 -36 14q-14 15 -14 36q0 20 14 35q15 15 36 15t36 -15
q14 -15 14 -35q0 -21 -14 -36q-15 -14 -36 -14zM692 18q-21 0 -36 14q-14 15 -14 36q0 20 14 35q15 15 36 15t36 -15q14 -15 14 -35q0 -21 -14 -36q-15 -14 -36 -14zM514 -31q-21 0 -36 15q-14 14 -14 35q0 20 14 35q15 15 36 15t36 -15q14 -15 14 -35q0 -21 -14 -35
q-15 -15 -36 -15zM510 479l-57 55q-22 20 -39 30q-15 9 -29 9q-37 0 -56 -37q-18 -36 -20 -118h-125q2 136 53 208q51 74 142 74q38 0 70 -14t69 -47l57 -55q23 -19 39 -30q16 -9 29 -9q38 0 56 37q18 36 20 118h125q-2 -135 -53 -208q-50 -74 -142 -74q-37 0 -70 14
q-31 14 -69 47zM50 509q-21 0 -36 15q-14 14 -14 35q0 20 14 35q15 15 36 15t36 -15q14 -15 14 -35q0 -21 -14 -35q-15 -15 -36 -15zM978 509q-21 0 -36 15q-14 14 -14 35q0 20 14 35q15 15 36 15t36 -15q14 -15 14 -35q0 -21 -14 -35q-15 -15 -36 -15z" />
    <glyph glyph-name="uni0335" unicode="&#x335;" 
d="M778 641v-164h-528v164h528zM120 803q15 -15 15 -35q0 -21 -15 -36q-14 -14 -35 -14t-35 14q-15 15 -15 36q0 20 15 35q14 15 35 15t35 -15zM980 803q14 -15 14 -35q0 -21 -14 -36q-15 -14 -36 -14t-36 14q-14 15 -14 36q0 20 14 35q15 15 36 15t36 -15zM222 973
q14 -15 14 -35q0 -21 -14 -36q-15 -14 -36 -14t-36 14q-14 15 -14 36q0 20 14 35q15 15 36 15t36 -15zM878 973q15 -15 15 -35q0 -21 -15 -36q-14 -14 -35 -14t-35 14q-15 15 -15 36q0 20 15 35q14 15 35 15t35 -15zM374 1085q14 -15 14 -35q0 -21 -14 -36q-15 -14 -36 -14
t-36 14q-14 15 -14 36q0 20 14 35q15 15 36 15t36 -15zM728 1085q14 -15 14 -35q0 -21 -14 -36q-15 -14 -36 -14t-36 14q-14 15 -14 36q0 20 14 35q15 15 36 15t36 -15zM550 1134q14 -15 14 -35q0 -21 -14 -35q-15 -15 -36 -15t-36 15q-14 14 -14 35q0 20 14 35q15 15 36 15
t36 -15zM50 509q-21 0 -36 15q-14 14 -14 35q0 20 14 35q15 15 36 15t36 -15q14 -15 14 -35q0 -21 -14 -35q-15 -15 -36 -15zM978 509q-21 0 -36 15q-14 14 -14 35q0 20 14 35q15 15 36 15t36 -15q14 -15 14 -35q0 -21 -14 -35q-15 -15 -36 -15zM85 300q-21 0 -35 14
q-15 15 -15 36q0 20 15 35q14 15 35 15t35 -15q15 -15 15 -35q0 -21 -15 -36q-14 -14 -35 -14zM944 300q-21 0 -36 14q-14 15 -14 36q0 20 14 35q15 15 36 15t36 -15q14 -15 14 -35q0 -21 -14 -36q-15 -14 -36 -14zM186 130q-21 0 -36 14q-14 15 -14 36q0 20 14 35
q15 15 36 15t36 -15q14 -15 14 -35q0 -21 -14 -36q-15 -14 -36 -14zM843 130q-21 0 -35 14q-15 15 -15 36q0 20 15 35q14 15 35 15t35 -15q15 -15 15 -35q0 -21 -15 -36q-14 -14 -35 -14zM338 18q-21 0 -36 14q-14 15 -14 36q0 20 14 35q15 15 36 15t36 -15q14 -15 14 -35
q0 -21 -14 -36q-15 -14 -36 -14zM692 18q-21 0 -36 14q-14 15 -14 36q0 20 14 35q15 15 36 15t36 -15q14 -15 14 -35q0 -21 -14 -36q-15 -14 -36 -14zM514 -31q-21 0 -36 15q-14 14 -14 35q0 20 14 35q15 15 36 15t36 -15q14 -15 14 -35q0 -21 -14 -35q-15 -15 -36 -15z" />
    <glyph glyph-name="uni0336" unicode="&#x336;" 
d="M-135 477v164h1298v-164h-1298zM120 803q15 -15 15 -35q0 -21 -15 -36q-14 -14 -35 -14t-35 14q-15 15 -15 36q0 20 15 35q14 15 35 15t35 -15zM980 803q14 -15 14 -35q0 -21 -14 -36q-15 -14 -36 -14t-36 14q-14 15 -14 36q0 20 14 35q15 15 36 15t36 -15zM222 973
q14 -15 14 -35q0 -21 -14 -36q-15 -14 -36 -14t-36 14q-14 15 -14 36q0 20 14 35q15 15 36 15t36 -15zM878 973q15 -15 15 -35q0 -21 -15 -36q-14 -14 -35 -14t-35 14q-15 15 -15 36q0 20 15 35q14 15 35 15t35 -15zM374 1085q14 -15 14 -35q0 -21 -14 -36q-15 -14 -36 -14
t-36 14q-14 15 -14 36q0 20 14 35q15 15 36 15t36 -15zM728 1085q14 -15 14 -35q0 -21 -14 -36q-15 -14 -36 -14t-36 14q-14 15 -14 36q0 20 14 35q15 15 36 15t36 -15zM550 1134q14 -15 14 -35q0 -21 -14 -35q-15 -15 -36 -15t-36 15q-14 14 -14 35q0 20 14 35q15 15 36 15
t36 -15zM85 300q-21 0 -35 14q-15 15 -15 36q0 20 15 35q14 15 35 15t35 -15q15 -15 15 -35q0 -21 -15 -36q-14 -14 -35 -14zM944 300q-21 0 -36 14q-14 15 -14 36q0 20 14 35q15 15 36 15t36 -15q14 -15 14 -35q0 -21 -14 -36q-15 -14 -36 -14zM186 130q-21 0 -36 14
q-14 15 -14 36q0 20 14 35q15 15 36 15t36 -15q14 -15 14 -35q0 -21 -14 -36q-15 -14 -36 -14zM843 130q-21 0 -35 14q-15 15 -15 36q0 20 15 35q14 15 35 15t35 -15q15 -15 15 -35q0 -21 -15 -36q-14 -14 -35 -14zM338 18q-21 0 -36 14q-14 15 -14 36q0 20 14 35
q15 15 36 15t36 -15q14 -15 14 -35q0 -21 -14 -36q-15 -14 -36 -14zM692 18q-21 0 -36 14q-14 15 -14 36q0 20 14 35q15 15 36 15t36 -15q14 -15 14 -35q0 -21 -14 -36q-15 -14 -36 -14zM514 -31q-21 0 -36 15q-14 14 -14 35q0 20 14 35q15 15 36 15t36 -15q14 -15 14 -35
q0 -21 -14 -35q-15 -15 -36 -15z" />
    <glyph glyph-name="uni0337" unicode="&#x337;" 
d="M56 -94l-96 78l1013 1228l95 -79zM120 803q15 -15 15 -35q0 -21 -15 -36q-14 -14 -35 -14t-35 14q-15 15 -15 36q0 20 15 35q14 15 35 15t35 -15zM980 803q14 -15 14 -35q0 -21 -14 -36q-15 -14 -36 -14t-36 14q-14 15 -14 36q0 20 14 35q15 15 36 15t36 -15zM222 973
q14 -15 14 -35q0 -21 -14 -36q-15 -14 -36 -14t-36 14q-14 15 -14 36q0 20 14 35q15 15 36 15t36 -15zM374 1085q14 -15 14 -35q0 -21 -14 -36q-15 -14 -36 -14t-36 14q-14 15 -14 36q0 20 14 35q15 15 36 15t36 -15zM728 1085q14 -15 14 -35q0 -21 -14 -36q-15 -14 -36 -14
t-36 14q-14 15 -14 36q0 20 14 35q15 15 36 15t36 -15zM550 1134q14 -15 14 -35q0 -21 -14 -35q-15 -15 -36 -15t-36 15q-14 14 -14 35q0 20 14 35q15 15 36 15t36 -15zM50 509q-21 0 -36 15q-14 14 -14 35q0 20 14 35q15 15 36 15t36 -15q14 -15 14 -35q0 -21 -14 -35
q-15 -15 -36 -15zM978 509q-21 0 -36 15q-14 14 -14 35q0 20 14 35q15 15 36 15t36 -15q14 -15 14 -35q0 -21 -14 -35q-15 -15 -36 -15zM85 300q-21 0 -35 14q-15 15 -15 36q0 20 15 35q14 15 35 15t35 -15q15 -15 15 -35q0 -21 -15 -36q-14 -14 -35 -14zM944 300
q-21 0 -36 14q-14 15 -14 36q0 20 14 35q15 15 36 15t36 -15q14 -15 14 -35q0 -21 -14 -36q-15 -14 -36 -14zM843 130q-21 0 -35 14q-15 15 -15 36q0 20 15 35q14 15 35 15t35 -15q15 -15 15 -35q0 -21 -15 -36q-14 -14 -35 -14zM338 18q-21 0 -36 14q-14 15 -14 36
q0 20 14 35q15 15 36 15t36 -15q14 -15 14 -35q0 -21 -14 -36q-15 -14 -36 -14zM692 18q-21 0 -36 14q-14 15 -14 36q0 20 14 35q15 15 36 15t36 -15q14 -15 14 -35q0 -21 -14 -36q-15 -14 -36 -14zM514 -31q-21 0 -36 15q-14 14 -14 35q0 20 14 35q15 15 36 15t36 -15
q14 -15 14 -35q0 -21 -14 -35q-15 -15 -36 -15z" />
    <glyph glyph-name="uni0338" unicode="&#x338;" 
d="M-86 -255l-103 88l1305 1541l102 -89zM120 803q15 -15 15 -35q0 -21 -15 -36q-14 -14 -35 -14t-35 14q-15 15 -15 36q0 20 15 35q14 15 35 15t35 -15zM980 803q14 -15 14 -35q0 -21 -14 -36q-15 -14 -36 -14t-36 14q-14 15 -14 36q0 20 14 35q15 15 36 15t36 -15z
M222 973q14 -15 14 -35q0 -21 -14 -36q-15 -14 -36 -14t-36 14q-14 15 -14 36q0 20 14 35q15 15 36 15t36 -15zM374 1085q14 -15 14 -35q0 -21 -14 -36q-15 -14 -36 -14t-36 14q-14 15 -14 36q0 20 14 35q15 15 36 15t36 -15zM728 1085q14 -15 14 -35q0 -21 -14 -36
q-15 -14 -36 -14t-36 14q-14 15 -14 36q0 20 14 35q15 15 36 15t36 -15zM550 1134q14 -15 14 -35q0 -21 -14 -35q-15 -15 -36 -15t-36 15q-14 14 -14 35q0 20 14 35q15 15 36 15t36 -15zM50 509q-21 0 -36 15q-14 14 -14 35q0 20 14 35q15 15 36 15t36 -15q14 -15 14 -35
q0 -21 -14 -35q-15 -15 -36 -15zM978 509q-21 0 -36 15q-14 14 -14 35q0 20 14 35q15 15 36 15t36 -15q14 -15 14 -35q0 -21 -14 -35q-15 -15 -36 -15zM85 300q-21 0 -35 14q-15 15 -15 36q0 20 15 35q14 15 35 15t35 -15q15 -15 15 -35q0 -21 -15 -36q-14 -14 -35 -14z
M944 300q-21 0 -36 14q-14 15 -14 36q0 20 14 35q15 15 36 15t36 -15q14 -15 14 -35q0 -21 -14 -36q-15 -14 -36 -14zM843 130q-21 0 -35 14q-15 15 -15 36q0 20 15 35q14 15 35 15t35 -15q15 -15 15 -35q0 -21 -15 -36q-14 -14 -35 -14zM338 18q-21 0 -36 14q-14 15 -14 36
q0 20 14 35q15 15 36 15t36 -15q14 -15 14 -35q0 -21 -14 -36q-15 -14 -36 -14zM692 18q-21 0 -36 14q-14 15 -14 36q0 20 14 35q15 15 36 15t36 -15q14 -15 14 -35q0 -21 -14 -36q-15 -14 -36 -14zM514 -31q-21 0 -36 15q-14 14 -14 35q0 20 14 35q15 15 36 15t36 -15
q14 -15 14 -35q0 -21 -14 -35q-15 -15 -36 -15z" />
    <glyph glyph-name="uni0339" unicode="&#x339;" 
d="M407 -66q90 0 152 -62q62 -63 62 -153q0 -88 -62 -151q-62 -62 -152 -62v120q41 0 67 26q26 27 26 66q0 41 -26 66q-26 27 -67 27v123zM120 803q15 -15 15 -35q0 -21 -15 -36q-14 -14 -35 -14t-35 14q-15 15 -15 36q0 20 15 35q14 15 35 15t35 -15zM980 803
q14 -15 14 -35q0 -21 -14 -36q-15 -14 -36 -14t-36 14q-14 15 -14 36q0 20 14 35q15 15 36 15t36 -15zM222 973q14 -15 14 -35q0 -21 -14 -36q-15 -14 -36 -14t-36 14q-14 15 -14 36q0 20 14 35q15 15 36 15t36 -15zM878 973q15 -15 15 -35q0 -21 -15 -36q-14 -14 -35 -14
t-35 14q-15 15 -15 36q0 20 15 35q14 15 35 15t35 -15zM374 1085q14 -15 14 -35q0 -21 -14 -36q-15 -14 -36 -14t-36 14q-14 15 -14 36q0 20 14 35q15 15 36 15t36 -15zM728 1085q14 -15 14 -35q0 -21 -14 -36q-15 -14 -36 -14t-36 14q-14 15 -14 36q0 20 14 35q15 15 36 15
t36 -15zM550 1134q14 -15 14 -35q0 -21 -14 -35q-15 -15 -36 -15t-36 15q-14 14 -14 35q0 20 14 35q15 15 36 15t36 -15zM50 509q-21 0 -36 15q-14 14 -14 35q0 20 14 35q15 15 36 15t36 -15q14 -15 14 -35q0 -21 -14 -35q-15 -15 -36 -15zM978 509q-21 0 -36 15
q-14 14 -14 35q0 20 14 35q15 15 36 15t36 -15q14 -15 14 -35q0 -21 -14 -35q-15 -15 -36 -15zM85 300q-21 0 -35 14q-15 15 -15 36q0 20 15 35q14 15 35 15t35 -15q15 -15 15 -35q0 -21 -15 -36q-14 -14 -35 -14zM944 300q-21 0 -36 14q-14 15 -14 36q0 20 14 35
q15 15 36 15t36 -15q14 -15 14 -35q0 -21 -14 -36q-15 -14 -36 -14zM186 130q-21 0 -36 14q-14 15 -14 36q0 20 14 35q15 15 36 15t36 -15q14 -15 14 -35q0 -21 -14 -36q-15 -14 -36 -14zM843 130q-21 0 -35 14q-15 15 -15 36q0 20 15 35q14 15 35 15t35 -15q15 -15 15 -35
q0 -21 -15 -36q-14 -14 -35 -14zM338 18q-21 0 -36 14q-14 15 -14 36q0 20 14 35q15 15 36 15t36 -15q14 -15 14 -35q0 -21 -14 -36q-15 -14 -36 -14zM692 18q-21 0 -36 14q-14 15 -14 36q0 20 14 35q15 15 36 15t36 -15q14 -15 14 -35q0 -21 -14 -36q-15 -14 -36 -14z
M514 -31q-21 0 -36 15q-14 14 -14 35q0 20 14 35q15 15 36 15t36 -15q14 -15 14 -35q0 -21 -14 -35q-15 -15 -36 -15z" />
    <glyph glyph-name="uni033A" unicode="&#x33a;" 
d="M239 -421v330h137v-194h277v194h137v-330h-551zM120 803q15 -15 15 -35q0 -21 -15 -36q-14 -14 -35 -14t-35 14q-15 15 -15 36q0 20 15 35q14 15 35 15t35 -15zM980 803q14 -15 14 -35q0 -21 -14 -36q-15 -14 -36 -14t-36 14q-14 15 -14 36q0 20 14 35q15 15 36 15
t36 -15zM222 973q14 -15 14 -35q0 -21 -14 -36q-15 -14 -36 -14t-36 14q-14 15 -14 36q0 20 14 35q15 15 36 15t36 -15zM878 973q15 -15 15 -35q0 -21 -15 -36q-14 -14 -35 -14t-35 14q-15 15 -15 36q0 20 15 35q14 15 35 15t35 -15zM374 1085q14 -15 14 -35q0 -21 -14 -36
q-15 -14 -36 -14t-36 14q-14 15 -14 36q0 20 14 35q15 15 36 15t36 -15zM728 1085q14 -15 14 -35q0 -21 -14 -36q-15 -14 -36 -14t-36 14q-14 15 -14 36q0 20 14 35q15 15 36 15t36 -15zM550 1134q14 -15 14 -35q0 -21 -14 -35q-15 -15 -36 -15t-36 15q-14 14 -14 35
q0 20 14 35q15 15 36 15t36 -15zM50 509q-21 0 -36 15q-14 14 -14 35q0 20 14 35q15 15 36 15t36 -15q14 -15 14 -35q0 -21 -14 -35q-15 -15 -36 -15zM978 509q-21 0 -36 15q-14 14 -14 35q0 20 14 35q15 15 36 15t36 -15q14 -15 14 -35q0 -21 -14 -35q-15 -15 -36 -15z
M85 300q-21 0 -35 14q-15 15 -15 36q0 20 15 35q14 15 35 15t35 -15q15 -15 15 -35q0 -21 -15 -36q-14 -14 -35 -14zM944 300q-21 0 -36 14q-14 15 -14 36q0 20 14 35q15 15 36 15t36 -15q14 -15 14 -35q0 -21 -14 -36q-15 -14 -36 -14zM186 130q-21 0 -36 14q-14 15 -14 36
q0 20 14 35q15 15 36 15t36 -15q14 -15 14 -35q0 -21 -14 -36q-15 -14 -36 -14zM843 130q-21 0 -35 14q-15 15 -15 36q0 20 15 35q14 15 35 15t35 -15q15 -15 15 -35q0 -21 -15 -36q-14 -14 -35 -14zM338 18q-21 0 -36 14q-14 15 -14 36q0 20 14 35q15 15 36 15t36 -15
q14 -15 14 -35q0 -21 -14 -36q-15 -14 -36 -14zM692 18q-21 0 -36 14q-14 15 -14 36q0 20 14 35q15 15 36 15t36 -15q14 -15 14 -35q0 -21 -14 -36q-15 -14 -36 -14zM514 -31q-21 0 -36 15q-14 14 -14 35q0 20 14 35q15 15 36 15t36 -15q14 -15 14 -35q0 -21 -14 -35
q-15 -15 -36 -15z" />
    <glyph glyph-name="uni033B" unicode="&#x33b;" 
d="M120 803q15 -15 15 -35q0 -21 -15 -36q-14 -14 -35 -14t-35 14q-15 15 -15 36q0 20 15 35q14 15 35 15t35 -15zM980 803q14 -15 14 -35q0 -21 -14 -36q-15 -14 -36 -14t-36 14q-14 15 -14 36q0 20 14 35q15 15 36 15t36 -15zM222 973q14 -15 14 -35q0 -21 -14 -36
q-15 -14 -36 -14t-36 14q-14 15 -14 36q0 20 14 35q15 15 36 15t36 -15zM878 973q15 -15 15 -35q0 -21 -15 -36q-14 -14 -35 -14t-35 14q-15 15 -15 36q0 20 15 35q14 15 35 15t35 -15zM374 1085q14 -15 14 -35q0 -21 -14 -36q-15 -14 -36 -14t-36 14q-14 15 -14 36
q0 20 14 35q15 15 36 15t36 -15zM728 1085q14 -15 14 -35q0 -21 -14 -36q-15 -14 -36 -14t-36 14q-14 15 -14 36q0 20 14 35q15 15 36 15t36 -15zM550 1134q14 -15 14 -35q0 -21 -14 -35q-15 -15 -36 -15t-36 15q-14 14 -14 35q0 20 14 35q15 15 36 15t36 -15zM50 509
q-21 0 -36 15q-14 14 -14 35q0 20 14 35q15 15 36 15t36 -15q14 -15 14 -35q0 -21 -14 -35q-15 -15 -36 -15zM978 509q-21 0 -36 15q-14 14 -14 35q0 20 14 35q15 15 36 15t36 -15q14 -15 14 -35q0 -21 -14 -35q-15 -15 -36 -15zM85 300q-21 0 -35 14q-15 15 -15 36
q0 20 15 35q14 15 35 15t35 -15q15 -15 15 -35q0 -21 -15 -36q-14 -14 -35 -14zM944 300q-21 0 -36 14q-14 15 -14 36q0 20 14 35q15 15 36 15t36 -15q14 -15 14 -35q0 -21 -14 -36q-15 -14 -36 -14zM186 130q-21 0 -36 14q-14 15 -14 36q0 20 14 35q15 15 36 15t36 -15
q14 -15 14 -35q0 -21 -14 -36q-15 -14 -36 -14zM843 130q-21 0 -35 14q-15 15 -15 36q0 20 15 35q14 15 35 15t35 -15q15 -15 15 -35q0 -21 -15 -36q-14 -14 -35 -14zM338 18q-21 0 -36 14q-14 15 -14 36q0 20 14 35q15 15 36 15t36 -15q14 -15 14 -35q0 -21 -14 -36
q-15 -14 -36 -14zM692 18q-21 0 -36 14q-14 15 -14 36q0 20 14 35q15 15 36 15t36 -15q14 -15 14 -35q0 -21 -14 -36q-15 -14 -36 -14zM514 -31q-21 0 -36 15q-14 14 -14 35q0 20 14 35q15 15 36 15t36 -15q14 -15 14 -35q0 -21 -14 -35q-15 -15 -36 -15zM790 -492h-551v390
h551v-390zM376 -356h277v118h-277v-118z" />
    <glyph glyph-name="uni033C" unicode="&#x33c;" 
d="M515 -250q60 82 175 82q218 0 235 -282v-5h-118q-12 150 -116 150q-102 0 -118 -150h-118q-11 149 -116 150q-102 0 -117 -150h-118q15 286 235 287q116 0 176 -82zM120 803q15 -15 15 -35q0 -21 -15 -36q-14 -14 -35 -14t-35 14q-15 15 -15 36q0 20 15 35q14 15 35 15
t35 -15zM980 803q14 -15 14 -35q0 -21 -14 -36q-15 -14 -36 -14t-36 14q-14 15 -14 36q0 20 14 35q15 15 36 15t36 -15zM222 973q14 -15 14 -35q0 -21 -14 -36q-15 -14 -36 -14t-36 14q-14 15 -14 36q0 20 14 35q15 15 36 15t36 -15zM878 973q15 -15 15 -35q0 -21 -15 -36
q-14 -14 -35 -14t-35 14q-15 15 -15 36q0 20 15 35q14 15 35 15t35 -15zM374 1085q14 -15 14 -35q0 -21 -14 -36q-15 -14 -36 -14t-36 14q-14 15 -14 36q0 20 14 35q15 15 36 15t36 -15zM728 1085q14 -15 14 -35q0 -21 -14 -36q-15 -14 -36 -14t-36 14q-14 15 -14 36
q0 20 14 35q15 15 36 15t36 -15zM550 1134q14 -15 14 -35q0 -21 -14 -35q-15 -15 -36 -15t-36 15q-14 14 -14 35q0 20 14 35q15 15 36 15t36 -15zM50 509q-21 0 -36 15q-14 14 -14 35q0 20 14 35q15 15 36 15t36 -15q14 -15 14 -35q0 -21 -14 -35q-15 -15 -36 -15zM978 509
q-21 0 -36 15q-14 14 -14 35q0 20 14 35q15 15 36 15t36 -15q14 -15 14 -35q0 -21 -14 -35q-15 -15 -36 -15zM85 300q-21 0 -35 14q-15 15 -15 36q0 20 15 35q14 15 35 15t35 -15q15 -15 15 -35q0 -21 -15 -36q-14 -14 -35 -14zM944 300q-21 0 -36 14q-14 15 -14 36
q0 20 14 35q15 15 36 15t36 -15q14 -15 14 -35q0 -21 -14 -36q-15 -14 -36 -14zM186 130q-21 0 -36 14q-14 15 -14 36q0 20 14 35q15 15 36 15t36 -15q14 -15 14 -35q0 -21 -14 -36q-15 -14 -36 -14zM843 130q-21 0 -35 14q-15 15 -15 36q0 20 15 35q14 15 35 15t35 -15
q15 -15 15 -35q0 -21 -15 -36q-14 -14 -35 -14zM338 18q-21 0 -36 14q-14 15 -14 36q0 20 14 35q15 15 36 15t36 -15q14 -15 14 -35q0 -21 -14 -36q-15 -14 -36 -14zM692 18q-21 0 -36 14q-14 15 -14 36q0 20 14 35q15 15 36 15t36 -15q14 -15 14 -35q0 -21 -14 -36
q-15 -14 -36 -14zM514 -31q-21 0 -36 15q-14 14 -14 35q0 20 14 35q15 15 36 15t36 -15q14 -15 14 -35q0 -21 -14 -35q-15 -15 -36 -15z" />
    <glyph glyph-name="uni033D" unicode="&#x33d;" 
d="M514 1392l-125 -125l-96 96l125 125l-125 125l96 96l125 -125l125 125l96 -96l-125 -125l125 -125l-96 -96zM120 803q15 -15 15 -35q0 -21 -15 -36q-14 -14 -35 -14t-35 14q-15 15 -15 36q0 20 15 35q14 15 35 15t35 -15zM980 803q14 -15 14 -35q0 -21 -14 -36
q-15 -14 -36 -14t-36 14q-14 15 -14 36q0 20 14 35q15 15 36 15t36 -15zM222 973q14 -15 14 -35q0 -21 -14 -36q-15 -14 -36 -14t-36 14q-14 15 -14 36q0 20 14 35q15 15 36 15t36 -15zM878 973q15 -15 15 -35q0 -21 -15 -36q-14 -14 -35 -14t-35 14q-15 15 -15 36
q0 20 15 35q14 15 35 15t35 -15zM374 1085q14 -15 14 -35q0 -21 -14 -36q-15 -14 -36 -14t-36 14q-14 15 -14 36q0 20 14 35q15 15 36 15t36 -15zM728 1085q14 -15 14 -35q0 -21 -14 -36q-15 -14 -36 -14t-36 14q-14 15 -14 36q0 20 14 35q15 15 36 15t36 -15zM550 1134
q14 -15 14 -35q0 -21 -14 -35q-15 -15 -36 -15t-36 15q-14 14 -14 35q0 20 14 35q15 15 36 15t36 -15zM50 509q-21 0 -36 15q-14 14 -14 35q0 20 14 35q15 15 36 15t36 -15q14 -15 14 -35q0 -21 -14 -35q-15 -15 -36 -15zM978 509q-21 0 -36 15q-14 14 -14 35q0 20 14 35
q15 15 36 15t36 -15q14 -15 14 -35q0 -21 -14 -35q-15 -15 -36 -15zM85 300q-21 0 -35 14q-15 15 -15 36q0 20 15 35q14 15 35 15t35 -15q15 -15 15 -35q0 -21 -15 -36q-14 -14 -35 -14zM944 300q-21 0 -36 14q-14 15 -14 36q0 20 14 35q15 15 36 15t36 -15q14 -15 14 -35
q0 -21 -14 -36q-15 -14 -36 -14zM186 130q-21 0 -36 14q-14 15 -14 36q0 20 14 35q15 15 36 15t36 -15q14 -15 14 -35q0 -21 -14 -36q-15 -14 -36 -14zM843 130q-21 0 -35 14q-15 15 -15 36q0 20 15 35q14 15 35 15t35 -15q15 -15 15 -35q0 -21 -15 -36q-14 -14 -35 -14z
M338 18q-21 0 -36 14q-14 15 -14 36q0 20 14 35q15 15 36 15t36 -15q14 -15 14 -35q0 -21 -14 -36q-15 -14 -36 -14zM692 18q-21 0 -36 14q-14 15 -14 36q0 20 14 35q15 15 36 15t36 -15q14 -15 14 -35q0 -21 -14 -36q-15 -14 -36 -14zM514 -31q-21 0 -36 15q-14 14 -14 35
q0 20 14 35q15 15 36 15t36 -15q14 -15 14 -35q0 -21 -14 -35q-15 -15 -36 -15z" />
    <glyph glyph-name="uni033E" unicode="&#x33e;" 
d="M434 1479q-33 28 -47 52t-14 52q0 80 73 121q75 41 209 42v-110q-82 -1 -119 -16q-36 -12 -36 -41q0 -10 9 -22q12 -15 30 -29l55 -43q33 -28 47 -52q14 -23 14 -52q0 -79 -73 -121q-74 -39 -209 -42v110q82 1 119 16q36 13 36 41q0 11 -9 22q-12 15 -30 29zM120 803
q15 -15 15 -35q0 -21 -15 -36q-14 -14 -35 -14t-35 14q-15 15 -15 36q0 20 15 35q14 15 35 15t35 -15zM980 803q14 -15 14 -35q0 -21 -14 -36q-15 -14 -36 -14t-36 14q-14 15 -14 36q0 20 14 35q15 15 36 15t36 -15zM222 973q14 -15 14 -35q0 -21 -14 -36q-15 -14 -36 -14
t-36 14q-14 15 -14 36q0 20 14 35q15 15 36 15t36 -15zM878 973q15 -15 15 -35q0 -21 -15 -36q-14 -14 -35 -14t-35 14q-15 15 -15 36q0 20 15 35q14 15 35 15t35 -15zM374 1085q14 -15 14 -35q0 -21 -14 -36q-15 -14 -36 -14t-36 14q-14 15 -14 36q0 20 14 35q15 15 36 15
t36 -15zM728 1085q14 -15 14 -35q0 -21 -14 -36q-15 -14 -36 -14t-36 14q-14 15 -14 36q0 20 14 35q15 15 36 15t36 -15zM550 1134q14 -15 14 -35q0 -21 -14 -35q-15 -15 -36 -15t-36 15q-14 14 -14 35q0 20 14 35q15 15 36 15t36 -15zM50 509q-21 0 -36 15q-14 14 -14 35
q0 20 14 35q15 15 36 15t36 -15q14 -15 14 -35q0 -21 -14 -35q-15 -15 -36 -15zM978 509q-21 0 -36 15q-14 14 -14 35q0 20 14 35q15 15 36 15t36 -15q14 -15 14 -35q0 -21 -14 -35q-15 -15 -36 -15zM85 300q-21 0 -35 14q-15 15 -15 36q0 20 15 35q14 15 35 15t35 -15
q15 -15 15 -35q0 -21 -15 -36q-14 -14 -35 -14zM944 300q-21 0 -36 14q-14 15 -14 36q0 20 14 35q15 15 36 15t36 -15q14 -15 14 -35q0 -21 -14 -36q-15 -14 -36 -14zM186 130q-21 0 -36 14q-14 15 -14 36q0 20 14 35q15 15 36 15t36 -15q14 -15 14 -35q0 -21 -14 -36
q-15 -14 -36 -14zM843 130q-21 0 -35 14q-15 15 -15 36q0 20 15 35q14 15 35 15t35 -15q15 -15 15 -35q0 -21 -15 -36q-14 -14 -35 -14zM338 18q-21 0 -36 14q-14 15 -14 36q0 20 14 35q15 15 36 15t36 -15q14 -15 14 -35q0 -21 -14 -36q-15 -14 -36 -14zM692 18
q-21 0 -36 14q-14 15 -14 36q0 20 14 35q15 15 36 15t36 -15q14 -15 14 -35q0 -21 -14 -36q-15 -14 -36 -14zM514 -31q-21 0 -36 15q-14 14 -14 35q0 20 14 35q15 15 36 15t36 -15q14 -15 14 -35q0 -21 -14 -35q-15 -15 -36 -15z" />
    <glyph glyph-name="uni033F" unicode="&#x33f;" 
d="M1046 1662v-143h-1064v143h1064zM1046 1407v-143h-1064v143h1064zM120 803q15 -15 15 -35q0 -21 -15 -36q-14 -14 -35 -14t-35 14q-15 15 -15 36q0 20 15 35q14 15 35 15t35 -15zM980 803q14 -15 14 -35q0 -21 -14 -36q-15 -14 -36 -14t-36 14q-14 15 -14 36q0 20 14 35
q15 15 36 15t36 -15zM222 973q14 -15 14 -35q0 -21 -14 -36q-15 -14 -36 -14t-36 14q-14 15 -14 36q0 20 14 35q15 15 36 15t36 -15zM878 973q15 -15 15 -35q0 -21 -15 -36q-14 -14 -35 -14t-35 14q-15 15 -15 36q0 20 15 35q14 15 35 15t35 -15zM374 1085q14 -15 14 -35
q0 -21 -14 -36q-15 -14 -36 -14t-36 14q-14 15 -14 36q0 20 14 35q15 15 36 15t36 -15zM728 1085q14 -15 14 -35q0 -21 -14 -36q-15 -14 -36 -14t-36 14q-14 15 -14 36q0 20 14 35q15 15 36 15t36 -15zM550 1134q14 -15 14 -35q0 -21 -14 -35q-15 -15 -36 -15t-36 15
q-14 14 -14 35q0 20 14 35q15 15 36 15t36 -15zM50 509q-21 0 -36 15q-14 14 -14 35q0 20 14 35q15 15 36 15t36 -15q14 -15 14 -35q0 -21 -14 -35q-15 -15 -36 -15zM978 509q-21 0 -36 15q-14 14 -14 35q0 20 14 35q15 15 36 15t36 -15q14 -15 14 -35q0 -21 -14 -35
q-15 -15 -36 -15zM85 300q-21 0 -35 14q-15 15 -15 36q0 20 15 35q14 15 35 15t35 -15q15 -15 15 -35q0 -21 -15 -36q-14 -14 -35 -14zM944 300q-21 0 -36 14q-14 15 -14 36q0 20 14 35q15 15 36 15t36 -15q14 -15 14 -35q0 -21 -14 -36q-15 -14 -36 -14zM186 130
q-21 0 -36 14q-14 15 -14 36q0 20 14 35q15 15 36 15t36 -15q14 -15 14 -35q0 -21 -14 -36q-15 -14 -36 -14zM843 130q-21 0 -35 14q-15 15 -15 36q0 20 15 35q14 15 35 15t35 -15q15 -15 15 -35q0 -21 -15 -36q-14 -14 -35 -14zM338 18q-21 0 -36 14q-14 15 -14 36
q0 20 14 35q15 15 36 15t36 -15q14 -15 14 -35q0 -21 -14 -36q-15 -14 -36 -14zM692 18q-21 0 -36 14q-14 15 -14 36q0 20 14 35q15 15 36 15t36 -15q14 -15 14 -35q0 -21 -14 -36q-15 -14 -36 -14zM514 -31q-21 0 -36 15q-14 14 -14 35q0 20 14 35q15 15 36 15t36 -15
q14 -15 14 -35q0 -21 -14 -35q-15 -15 -36 -15z" />
    <glyph glyph-name="uni0340" unicode="&#x340;" 
d="M309 1638l282 -374h-153l-326 374h197zM120 803q15 -15 15 -35q0 -21 -15 -36q-14 -14 -35 -14t-35 14q-15 15 -15 36q0 20 15 35q14 15 35 15t35 -15zM980 803q14 -15 14 -35q0 -21 -14 -36q-15 -14 -36 -14t-36 14q-14 15 -14 36q0 20 14 35q15 15 36 15t36 -15z
M222 973q14 -15 14 -35q0 -21 -14 -36q-15 -14 -36 -14t-36 14q-14 15 -14 36q0 20 14 35q15 15 36 15t36 -15zM878 973q15 -15 15 -35q0 -21 -15 -36q-14 -14 -35 -14t-35 14q-15 15 -15 36q0 20 15 35q14 15 35 15t35 -15zM374 1085q14 -15 14 -35q0 -21 -14 -36
q-15 -14 -36 -14t-36 14q-14 15 -14 36q0 20 14 35q15 15 36 15t36 -15zM728 1085q14 -15 14 -35q0 -21 -14 -36q-15 -14 -36 -14t-36 14q-14 15 -14 36q0 20 14 35q15 15 36 15t36 -15zM550 1134q14 -15 14 -35q0 -21 -14 -35q-15 -15 -36 -15t-36 15q-14 14 -14 35
q0 20 14 35q15 15 36 15t36 -15zM50 509q-21 0 -36 15q-14 14 -14 35q0 20 14 35q15 15 36 15t36 -15q14 -15 14 -35q0 -21 -14 -35q-15 -15 -36 -15zM978 509q-21 0 -36 15q-14 14 -14 35q0 20 14 35q15 15 36 15t36 -15q14 -15 14 -35q0 -21 -14 -35q-15 -15 -36 -15z
M85 300q-21 0 -35 14q-15 15 -15 36q0 20 15 35q14 15 35 15t35 -15q15 -15 15 -35q0 -21 -15 -36q-14 -14 -35 -14zM944 300q-21 0 -36 14q-14 15 -14 36q0 20 14 35q15 15 36 15t36 -15q14 -15 14 -35q0 -21 -14 -36q-15 -14 -36 -14zM186 130q-21 0 -36 14q-14 15 -14 36
q0 20 14 35q15 15 36 15t36 -15q14 -15 14 -35q0 -21 -14 -36q-15 -14 -36 -14zM843 130q-21 0 -35 14q-15 15 -15 36q0 20 15 35q14 15 35 15t35 -15q15 -15 15 -35q0 -21 -15 -36q-14 -14 -35 -14zM338 18q-21 0 -36 14q-14 15 -14 36q0 20 14 35q15 15 36 15t36 -15
q14 -15 14 -35q0 -21 -14 -36q-15 -14 -36 -14zM692 18q-21 0 -36 14q-14 15 -14 36q0 20 14 35q15 15 36 15t36 -15q14 -15 14 -35q0 -21 -14 -36q-15 -14 -36 -14zM514 -31q-21 0 -36 15q-14 14 -14 35q0 20 14 35q15 15 36 15t36 -15q14 -15 14 -35q0 -21 -14 -35
q-15 -15 -36 -15z" />
    <glyph glyph-name="uni0341" unicode="&#x341;" 
d="M718 1638h199l-326 -376h-153zM120 803q15 -15 15 -35q0 -21 -15 -36q-14 -14 -35 -14t-35 14q-15 15 -15 36q0 20 15 35q14 15 35 15t35 -15zM980 803q14 -15 14 -35q0 -21 -14 -36q-15 -14 -36 -14t-36 14q-14 15 -14 36q0 20 14 35q15 15 36 15t36 -15zM222 973
q14 -15 14 -35q0 -21 -14 -36q-15 -14 -36 -14t-36 14q-14 15 -14 36q0 20 14 35q15 15 36 15t36 -15zM878 973q15 -15 15 -35q0 -21 -15 -36q-14 -14 -35 -14t-35 14q-15 15 -15 36q0 20 15 35q14 15 35 15t35 -15zM374 1085q14 -15 14 -35q0 -21 -14 -36q-15 -14 -36 -14
t-36 14q-14 15 -14 36q0 20 14 35q15 15 36 15t36 -15zM728 1085q14 -15 14 -35q0 -21 -14 -36q-15 -14 -36 -14t-36 14q-14 15 -14 36q0 20 14 35q15 15 36 15t36 -15zM550 1134q14 -15 14 -35q0 -21 -14 -35q-15 -15 -36 -15t-36 15q-14 14 -14 35q0 20 14 35q15 15 36 15
t36 -15zM50 509q-21 0 -36 15q-14 14 -14 35q0 20 14 35q15 15 36 15t36 -15q14 -15 14 -35q0 -21 -14 -35q-15 -15 -36 -15zM978 509q-21 0 -36 15q-14 14 -14 35q0 20 14 35q15 15 36 15t36 -15q14 -15 14 -35q0 -21 -14 -35q-15 -15 -36 -15zM85 300q-21 0 -35 14
q-15 15 -15 36q0 20 15 35q14 15 35 15t35 -15q15 -15 15 -35q0 -21 -15 -36q-14 -14 -35 -14zM944 300q-21 0 -36 14q-14 15 -14 36q0 20 14 35q15 15 36 15t36 -15q14 -15 14 -35q0 -21 -14 -36q-15 -14 -36 -14zM186 130q-21 0 -36 14q-14 15 -14 36q0 20 14 35
q15 15 36 15t36 -15q14 -15 14 -35q0 -21 -14 -36q-15 -14 -36 -14zM843 130q-21 0 -35 14q-15 15 -15 36q0 20 15 35q14 15 35 15t35 -15q15 -15 15 -35q0 -21 -15 -36q-14 -14 -35 -14zM338 18q-21 0 -36 14q-14 15 -14 36q0 20 14 35q15 15 36 15t36 -15q14 -15 14 -35
q0 -21 -14 -36q-15 -14 -36 -14zM692 18q-21 0 -36 14q-14 15 -14 36q0 20 14 35q15 15 36 15t36 -15q14 -15 14 -35q0 -21 -14 -36q-15 -14 -36 -14zM514 -31q-21 0 -36 15q-14 14 -14 35q0 20 14 35q15 15 36 15t36 -15q14 -15 14 -35q0 -21 -14 -35q-15 -15 -36 -15z" />
    <glyph glyph-name="uni0342" unicode="&#x342;" 
d="M510 1370l-57 55q-22 20 -39 29q-15 10 -29 10q-37 0 -56 -36q-18 -37 -20 -119h-125q2 135 53 209q51 73 142 73q38 0 70 -14t69 -47l57 -55q23 -20 39 -29q16 -10 29 -10q38 0 56 36q18 37 20 119h125q-2 -134 -53 -209q-50 -73 -142 -73q-37 0 -70 14q-31 14 -69 47z
M120 803q15 -15 15 -35q0 -21 -15 -36q-14 -14 -35 -14t-35 14q-15 15 -15 36q0 20 15 35q14 15 35 15t35 -15zM980 803q14 -15 14 -35q0 -21 -14 -36q-15 -14 -36 -14t-36 14q-14 15 -14 36q0 20 14 35q15 15 36 15t36 -15zM222 973q14 -15 14 -35q0 -21 -14 -36
q-15 -14 -36 -14t-36 14q-14 15 -14 36q0 20 14 35q15 15 36 15t36 -15zM878 973q15 -15 15 -35q0 -21 -15 -36q-14 -14 -35 -14t-35 14q-15 15 -15 36q0 20 15 35q14 15 35 15t35 -15zM374 1085q14 -15 14 -35q0 -21 -14 -36q-15 -14 -36 -14t-36 14q-14 15 -14 36
q0 20 14 35q15 15 36 15t36 -15zM728 1085q14 -15 14 -35q0 -21 -14 -36q-15 -14 -36 -14t-36 14q-14 15 -14 36q0 20 14 35q15 15 36 15t36 -15zM550 1134q14 -15 14 -35q0 -21 -14 -35q-15 -15 -36 -15t-36 15q-14 14 -14 35q0 20 14 35q15 15 36 15t36 -15zM50 509
q-21 0 -36 15q-14 14 -14 35q0 20 14 35q15 15 36 15t36 -15q14 -15 14 -35q0 -21 -14 -35q-15 -15 -36 -15zM978 509q-21 0 -36 15q-14 14 -14 35q0 20 14 35q15 15 36 15t36 -15q14 -15 14 -35q0 -21 -14 -35q-15 -15 -36 -15zM85 300q-21 0 -35 14q-15 15 -15 36
q0 20 15 35q14 15 35 15t35 -15q15 -15 15 -35q0 -21 -15 -36q-14 -14 -35 -14zM944 300q-21 0 -36 14q-14 15 -14 36q0 20 14 35q15 15 36 15t36 -15q14 -15 14 -35q0 -21 -14 -36q-15 -14 -36 -14zM186 130q-21 0 -36 14q-14 15 -14 36q0 20 14 35q15 15 36 15t36 -15
q14 -15 14 -35q0 -21 -14 -36q-15 -14 -36 -14zM843 130q-21 0 -35 14q-15 15 -15 36q0 20 15 35q14 15 35 15t35 -15q15 -15 15 -35q0 -21 -15 -36q-14 -14 -35 -14zM338 18q-21 0 -36 14q-14 15 -14 36q0 20 14 35q15 15 36 15t36 -15q14 -15 14 -35q0 -21 -14 -36
q-15 -14 -36 -14zM692 18q-21 0 -36 14q-14 15 -14 36q0 20 14 35q15 15 36 15t36 -15q14 -15 14 -35q0 -21 -14 -36q-15 -14 -36 -14zM514 -31q-21 0 -36 15q-14 14 -14 35q0 20 14 35q15 15 36 15t36 -15q14 -15 14 -35q0 -21 -14 -35q-15 -15 -36 -15z" />
    <glyph glyph-name="uni0343" unicode="&#x343;" 
d="M635 1475q0 -256 -242 -257v123q112 -2 112 134h-112v254h242v-254zM120 803q15 -15 15 -35q0 -21 -15 -36q-14 -14 -35 -14t-35 14q-15 15 -15 36q0 20 15 35q14 15 35 15t35 -15zM980 803q14 -15 14 -35q0 -21 -14 -36q-15 -14 -36 -14t-36 14q-14 15 -14 36
q0 20 14 35q15 15 36 15t36 -15zM222 973q14 -15 14 -35q0 -21 -14 -36q-15 -14 -36 -14t-36 14q-14 15 -14 36q0 20 14 35q15 15 36 15t36 -15zM878 973q15 -15 15 -35q0 -21 -15 -36q-14 -14 -35 -14t-35 14q-15 15 -15 36q0 20 15 35q14 15 35 15t35 -15zM374 1085
q14 -15 14 -35q0 -21 -14 -36q-15 -14 -36 -14t-36 14q-14 15 -14 36q0 20 14 35q15 15 36 15t36 -15zM728 1085q14 -15 14 -35q0 -21 -14 -36q-15 -14 -36 -14t-36 14q-14 15 -14 36q0 20 14 35q15 15 36 15t36 -15zM550 1134q14 -15 14 -35q0 -21 -14 -35q-15 -15 -36 -15
t-36 15q-14 14 -14 35q0 20 14 35q15 15 36 15t36 -15zM50 509q-21 0 -36 15q-14 14 -14 35q0 20 14 35q15 15 36 15t36 -15q14 -15 14 -35q0 -21 -14 -35q-15 -15 -36 -15zM978 509q-21 0 -36 15q-14 14 -14 35q0 20 14 35q15 15 36 15t36 -15q14 -15 14 -35q0 -21 -14 -35
q-15 -15 -36 -15zM85 300q-21 0 -35 14q-15 15 -15 36q0 20 15 35q14 15 35 15t35 -15q15 -15 15 -35q0 -21 -15 -36q-14 -14 -35 -14zM944 300q-21 0 -36 14q-14 15 -14 36q0 20 14 35q15 15 36 15t36 -15q14 -15 14 -35q0 -21 -14 -36q-15 -14 -36 -14zM186 130
q-21 0 -36 14q-14 15 -14 36q0 20 14 35q15 15 36 15t36 -15q14 -15 14 -35q0 -21 -14 -36q-15 -14 -36 -14zM843 130q-21 0 -35 14q-15 15 -15 36q0 20 15 35q14 15 35 15t35 -15q15 -15 15 -35q0 -21 -15 -36q-14 -14 -35 -14zM338 18q-21 0 -36 14q-14 15 -14 36
q0 20 14 35q15 15 36 15t36 -15q14 -15 14 -35q0 -21 -14 -36q-15 -14 -36 -14zM692 18q-21 0 -36 14q-14 15 -14 36q0 20 14 35q15 15 36 15t36 -15q14 -15 14 -35q0 -21 -14 -36q-15 -14 -36 -14zM514 -31q-21 0 -36 15q-14 14 -14 35q0 20 14 35q15 15 36 15t36 -15
q14 -15 14 -35q0 -21 -14 -35q-15 -15 -36 -15z" />
    </font>
</defs>
</svg>
